<svg xmlns="http://www.w3.org/2000/svg">
<defs>
<font
       id="FontID0"
       horiz-adv-x="667"
       font-variant="normal"
       style="fill-rule:nonzero"
       font-style="normal"
       font-weight="400">
	<font-face
   font-family="Arial"
   id="font-face2">
		<font-face-src>
			<font-face-name
   name="Arial" />
		</font-face-src>
	</font-face>
   <missing-glyph
   id="missing-glyph6"><path
     d="M0 0z"
     id="path4" /></missing-glyph>
   <glyph
   unicode="ÿ"
   horiz-adv-x="500"
   d="M61.9933 -199.501l-9.99206 81.3396c19.3322,-5.1732 35.9998,-7.83775 50.3288,-7.83775 19.6723,0 35.3336,3.33069 46.9981,9.83616 11.8346,6.4913 21.5007,15.6613 28.9982,27.3258 5.51335,8.84404 14.5133,30.6707 26.8439,65.6642 1.65826,4.83304 4.1669,12.0046 7.82357,21.5007l-196.992 520.679 93.9963 0 108.339 -299.677c14.159,-37.8281 26.6597,-77.8247 37.8281,-119.834 10.1621,39.5005 22.1668,78.505 36.1699,116.843l110.664 302.667 87.8309 0 -196.156 -528.006c-21.1747,-56.8343 -37.6722,-95.8388 -49.5068,-117.339 -15.6613,-28.8282 -33.6612,-49.9887 -53.8296,-63.4957 -20.3385,-13.4928 -44.5037,-20.1684 -72.5098,-20.1684 -16.9936,0 -35.9998,3.50077 -56.8343,10.5023zm60.0091 782.499l0 100.006 91.9978 0 0 -100.006 -91.9978 0zm181.997 0l0 100.006 91.9978 0 0 -100.006 -91.9978 0z"
   id="glyph8" />
   <glyph
   unicode="î"
   horiz-adv-x="277"
   d="M97.001 0l0 519.006 88.001 0 0 -519.006 -88.001 0zm48.9965 665.996l-54.4957 -82.9979 -100.006 0 104.499 136.998 93.0041 0 111.5 -136.998 -100.006 0 -54.4957 82.9979z"
   id="glyph10" />
   <glyph
   unicode="Ý"
   horiz-adv-x="667"
   d="M278.828 0l0 303.334 -275.994 412.665 113.995 0 141.505 -216.665c26.3337,-40.1667 50.839,-80.3334 73.1617,-120.5 21.8408,37.5021 48.3446,79.4971 79.1712,126.169l138.67 210.996 110.494 0 -286 -412.665 0 -303.334 -95.0026 0zm-7.82357 760.006l63.9917 136.998 116.007 0 -107.007 -136.998 -72.9917 0z"
   id="glyph12" />
   <glyph
   unicode="Ì"
   horiz-adv-x="277"
   d="M93.0041 0l0 715.999 95.0026 0 0 -715.999 -95.0026 0zm122.002 760.006l-71.0074 0 -113.002 136.998 118.006 0 66.0043 -136.998z"
   id="glyph14" />
   <glyph
   unicode="»"
   horiz-adv-x="556"
   d="M386.005 257.498l-129.004 222.504 71.9995 0 158.002 -222.504 -157.01 -222.504 -71.9995 0 128.012 222.504zm-188.999 0l-130.01 222.504 73.998 0 154.005 -222.504 -154.005 -222.504 -73.998 0 130.01 222.504z"
   id="glyph16" />
   <glyph
   unicode="ª"
   horiz-adv-x="370"
   d="M266.327 407.506c-39.6564,-29.0124 -81.3255,-43.5115 -124.823,-43.5115 -36.836,0 -65.8342,10.0062 -87.3349,30.0045 -21.5007,20.1684 -32.173,45.8359 -32.173,77.1727 0,15.6613 2.66455,29.3242 7.83775,40.9887 5.15902,11.8346 12.9968,22.1668 23.1589,31.3368 10.3464,9.17002 23.5132,16.4975 39.8407,21.9967 11.4944,3.67084 27.4959,7.00153 48.3304,10.3322l71.8295 10.6724c23.4991,4.66296 39.1746,7.83775 47.0123,9.83616 -0.340155,22.8329 -2.67872,37.9982 -6.84563,45.8359 -4.1669,7.82357 -12.1606,14.6692 -23.655,20.3243 -11.6787,5.66926 -26.9998,8.50388 -46.332,8.50388 -25.6676,0 -45.0139,-5.3291 -57.6705,-15.8314 -12.6708,-10.6724 -20.5085,-25.6676 -23.4991,-45.1698l-67.0106 17.0078c3.84092,28.8282 18.17,52.8233 43.0013,72.1555 24.6754,19.1763 60.0091,28.8423 106.001,28.8423 53.3335,0 91.1758,-10.1763 113.343,-30.5006 21.8266,-20.6644 32.6549,-51.0091 32.6549,-90.6656l0 -120.174 -0.49606 -30.5006c0,-44.8296 6.83145,-75.5003 20.5085,-92.1679l-71.9995 0c-7.00153,13.0109 -11.0125,27.5101 -11.6787,43.5115zm-7.32751 131.654c-17.1637,-4.49289 -48.3304,-10.3322 -93.5002,-17.4897 -29.1683,-4.67714 -48.1603,-10.9984 -56.8343,-19.1763 -9.17002,-8.33381 -13.6629,-18.8219 -13.6629,-31.1667 0,-13.3228 5.49918,-24.6613 16.4975,-34.1573 10.9984,-9.51018 26.6597,-14.1731 46.6721,-14.1731 23.655,0 44.3336,6.33539 61.8232,19.0062 17.5038,12.6566 29.1683,28.3321 35.0077,46.8281 2.32439,6.66138 3.65667,23.329 3.99683,50.3288z"
   id="glyph18" />
   <glyph
   unicode=""
   horiz-adv-x="750"
   d="M125.007 0l0 625.007 500 0 0 -625.007 -500 0zm15.9873 16.0015l468.011 0 0 593.004 -468.011 0 0 -593.004z"
   id="glyph20" />
   <glyph
   unicode=""
   horiz-adv-x="750"
   d="M125.007 0l0 625.007 500 0 0 -625.007 -500 0zm15.9873 16.0015l468.011 0 0 593.004 -468.011 0 0 -593.004z"
   id="glyph22" />
   <glyph
   unicode="w"
   horiz-adv-x="722"
   d="M159.334 0l-156.84 519.006 92.012 0 82.8278 -299.507 29.3384 -111.5c1.1622,5.49918 10.1621,41.173 26.8298,107.007l82.1617 304 90.1695 0 78.1649 -301.335 25.4975 -98.8435 29.8345 100.176 89.6735 300.003 85.4924 0 -162.835 -519.006 -90.9916 0 -82.3318 310.505 -20.8345 88.8231 -105.009 -399.328 -93.16 0z"
   id="glyph24" />
   <glyph
   unicode="f"
   horiz-adv-x="277"
   d="M86.9947 0l0 451.003 -77.9948 0 0 68.0027 77.9948 0 0 54.9918c0,34.8376 3.00471,60.6752 9.17002,77.4987 8.50388,22.677 23.1731,41.173 44.5037,55.3319 21.1605,14.1731 50.995,21.1747 89.3333,21.1747 24.8313,0 52.1713,-3.00471 82.1617,-8.82987l-13.1668 -77.0027c-18.3259,3.16061 -35.4895,4.83304 -51.8312,4.83304 -26.6597,0 -45.4958,-5.66926 -56.6642,-17.0078 -10.9984,-11.3243 -16.4975,-32.499 -16.4975,-63.4957l0 -47.4942 100.998 0 0 -68.0027 -100.006 0 0 -451.003 -88.001 0z"
   id="glyph26" />
   <glyph
   unicode="U"
   horiz-adv-x="722"
   d="M546.006 715.999l94.9884 0 0 -413.501c0,-71.9995 -8.16373,-129.16 -24.3211,-171.495 -16.3416,-42.1651 -45.68,-76.6625 -88.001,-103.166 -42.5052,-26.5038 -98.0073,-39.8407 -167.002,-39.8407 -66.8405,0 -121.676,11.5086 -164.167,34.6675 -42.6753,23.1731 -73.0058,56.5083 -91.1758,100.332 -18.1558,43.8375 -27.3258,103.677 -27.3258,179.503l0 413.501 95.0026 0 0 -413.331c0,-62.1634 5.82516,-108.169 17.3337,-137.508 11.4944,-29.4943 31.1667,-52.3272 59.3288,-68.1586 28.0061,-16.0015 62.3335,-23.9951 102.84,-23.9951 69.3208,0 118.828,15.8314 148.322,47.3241 29.5085,31.677 44.1777,92.338 44.1777,182.337l0 413.331z"
   id="glyph28" />
   <glyph
   unicode="D"
   horiz-adv-x="722"
   d="M77.0027 0l0 715.999 246.669 0c55.6579,0 98.1632,-3.33069 127.502,-10.1621 40.9887,-9.51018 75.9964,-26.6738 104.995,-51.3351 37.8281,-32.0029 66.0043,-72.6657 84.6703,-122.328 18.8219,-49.6769 28.162,-106.511 28.162,-170.333 0,-54.3398 -6.33539,-102.5 -19.0062,-144.509 -12.6566,-41.995 -28.9982,-76.8326 -48.8265,-104.328 -19.9983,-27.4959 -41.669,-49.1666 -65.3382,-64.8421 -23.4991,-15.8314 -52.0012,-27.8219 -85.3365,-35.9998 -33.4911,-8.16373 -71.8295,-12.1606 -115.157,-12.1606l-258.334 0zm95.0026 84.0042l152.659 0c47.1682,0 84.1743,4.32281 111.004,13.1668 26.8298,8.82987 48.1603,21.1605 64.1618,37.162 22.3369,22.5069 39.8407,52.8375 52.3414,90.8356 12.5007,37.9982 18.8219,84.0042 18.8219,138.16 0,75.0043 -12.3306,132.675 -36.8218,173.012 -24.5054,40.3226 -54.3398,67.3224 -89.5034,80.9995 -25.3416,9.82199 -66.1744,14.655 -122.498,14.655l-150.164 0 0 -547.99z"
   id="glyph30" />
   <glyph
   unicode="3"
   horiz-adv-x="556"
   d="M41.995 190.005l88.001 11.9905c10.1763,-49.9887 27.1699,-86.0026 51.3351,-107.999 24.1652,-21.9967 53.8296,-32.9951 89.0073,-32.9951 41.6549,0 76.8326,14.329 105.165,43.0013 28.3321,28.6581 42.4911,64.1618 42.4911,106.497 0,40.3368 -13.1668,73.672 -39.6564,100.006 -26.3337,26.1636 -59.839,39.3305 -100.672,39.3305 -16.6676,0 -37.332,-3.33069 -62.1634,-9.83616l9.83616 77.0027c5.82516,-0.666138 10.6582,-1.00629 14.159,-1.00629 37.6722,0 71.3334,9.83616 101.508,29.3384 29.9904,19.5022 44.9997,49.4926 44.9997,89.9994 0,32.173 -10.9984,58.8327 -32.8392,79.9932 -21.8266,21.1747 -50.0028,31.677 -84.5003,31.677 -34.3273,0 -62.8295,-10.8425 -85.6625,-32.499 -22.8329,-21.6707 -37.5021,-54.1697 -44.0076,-97.5112l-88.001 16.0015c10.8425,59.0028 35.1777,104.839 73.3318,137.338 38.0124,32.499 85.5065,48.6706 142.171,48.6706 39.0045,0 75.0043,-8.33381 107.829,-25.1715 33.0092,-16.6676 58.1666,-39.5005 75.5003,-68.3287 17.5038,-28.9982 26.1778,-59.6689 26.1778,-92.1679 0,-30.8408 -8.33381,-58.8327 -24.8313,-84.1743 -16.6676,-25.3274 -41.343,-45.4958 -73.8421,-60.491 42.3352,-9.66608 75.1743,-30.0045 98.6734,-60.8311 23.329,-30.6707 34.9935,-69.335 34.9935,-115.511 0,-62.4894 -22.8329,-115.667 -68.3287,-159.164 -45.6659,-43.4974 -103.336,-65.1681 -172.997,-65.1681 -62.8437,0 -115.001,18.8361 -156.5,56.3382 -41.669,37.5021 -65.3382,86.0026 -71.1775,145.672z"
   id="glyph32" />
   <glyph
   unicode="&quot;"
   horiz-adv-x="354"
   d="M70.3271 462.994l-24.3211 136.005 0 116.999 99.9915 0 0 -116.999 -21.9967 -136.005 -53.6737 0zm161.503 0l-23.825 136.005 0 116.999 99.9915 0 0 -116.999 -23.4991 -136.005 -52.6674 0z"
   id="glyph34" />
   <glyph
   unicode="ü"
   horiz-adv-x="556"
   d="M404.997 0l0 77.1727c-40.3368,-58.8327 -95.0026,-88.1711 -164.167,-88.1711 -30.5006,0 -59.0028,5.82516 -85.4924,17.5038 -26.5038,11.8346 -46.1761,26.4896 -59.0028,44.1635 -12.8409,17.8298 -21.8408,39.5005 -26.9998,65.1681 -3.50077,17.3337 -5.3291,44.6596 -5.3291,81.9916l0 321.178 88.001 0 0 -287.176c0,-45.8359 1.82833,-76.8326 5.3291,-92.664 5.49918,-23.1731 17.1637,-41.173 35.1636,-54.3256 17.8298,-13.1668 39.8407,-19.8424 66.1602,-19.8424 26.3337,0 51.0091,6.67555 74.0121,20.1684 22.9888,13.507 39.3305,32.0029 48.9965,55.1619 9.496,23.1731 14.329,57.0044 14.329,101.168l0 277.51 88.001 0 0 -519.006 -79.0011 0zm-269.998 582.998l0 100.006 91.9978 0 0 -100.006 -91.9978 0zm181.997 0l0 100.006 91.9978 0 0 -100.006 -91.9978 0z"
   id="glyph36" />
   <glyph
   unicode="ë"
   horiz-adv-x="556"
   d="M420.007 167.994l90.9916 -11.9905c-14.159,-52.8375 -40.6627,-94.0104 -79.3271,-123.165 -38.6643,-29.1683 -88.001,-43.8375 -148.166,-43.8375 -75.6704,0 -135.665,23.329 -179.999,70.0011 -44.3336,46.5021 -66.5004,111.996 -66.5004,196.17 0,86.9947 22.3227,154.657 67.1665,202.662 44.8296,48.1603 102.996,72.1696 174.5,72.1696 69.1649,0 125.659,-23.4991 169.497,-70.6673 43.8375,-47.1682 65.8342,-113.498 65.8342,-199.005 0,-5.15902 -0.170078,-12.9968 -0.49606,-23.329l-386.502 0c3.33069,-56.8343 19.3322,-100.502 48.3304,-130.676 28.8282,-30.1604 64.998,-45.3257 108.169,-45.3257 32.1589,0 59.6547,8.50388 82.3318,25.4975 22.8329,17.0078 40.8328,44.1635 54.1697,81.4955zm-288.012 141.009l289.004 0c-3.82675,43.6674 -14.9952,76.3365 -33.1651,98.1632 -27.836,33.8313 -64.1618,50.839 -108.665,50.839 -40.3368,0 -74.168,-13.507 -101.664,-40.5068 -27.34,-26.9998 -42.5052,-63.1697 -45.5099,-108.495zm14.0031 273.995l0 100.006 91.9978 0 0 -100.006 -91.9978 0zm181.997 0l0 100.006 92.012 0 0 -100.006 -92.012 0z"
   id="glyph38" />
   <glyph
   unicode="Ú"
   horiz-adv-x="722"
   d="M546.006 715.999l94.9884 0 0 -413.501c0,-71.9995 -8.16373,-129.16 -24.3211,-171.495 -16.3416,-42.1651 -45.68,-76.6625 -88.001,-103.166 -42.5052,-26.5038 -98.0073,-39.8407 -167.002,-39.8407 -66.8405,0 -121.676,11.5086 -164.167,34.6675 -42.6753,23.1731 -73.0058,56.5083 -91.1758,100.332 -18.1558,43.8375 -27.3258,103.677 -27.3258,179.503l0 413.501 95.0026 0 0 -413.331c0,-62.1634 5.82516,-108.169 17.3337,-137.508 11.4944,-29.4943 31.1667,-52.3272 59.3288,-68.1586 28.0061,-16.0015 62.3335,-23.9951 102.84,-23.9951 69.3208,0 118.828,15.8314 148.322,47.3241 29.5085,31.677 44.1777,92.338 44.1777,182.337l0 413.331zm-266.001 44.0076l63.9917 136.998 116.007 0 -107.007 -136.998 -72.9917 0z"
   id="glyph40" />
   <glyph
   unicode="É"
   horiz-adv-x="667"
   d="M79.0011 0l0 715.999 516.994 0 0 -84.0042 -421.991 0 0 -219.995 394.991 0 0 -84.0042 -394.991 0 0 -243.991 438.999 0 0 -84.0042 -534.001 0zm194.994 760.006l64.0059 136.998 115.993 0 -106.993 -136.998 -73.0058 0z"
   id="glyph42" />
   <glyph
   unicode="¸"
   horiz-adv-x="332"
   d="M105.661 -75.0043l25.3416 86.0026 64.998 0 -16.1716 -52.0012c27.836,-3.33069 48.8406,-11.8346 62.9996,-25.6676 14.1731,-13.6629 21.1747,-28.9982 21.1747,-45.8359 0,-24.3211 -11.8346,-45.8218 -35.5037,-64.4878 -23.4991,-18.666 -59.1729,-28.0061 -106.667,-28.0061 -26.8298,0 -50.4989,0 -70.8373,0l5.00312 61.9933c21.1747,-0.666138 36.4958,-0.99212 46.5021,-0.99212 30.8266,0 52.6674,4.1669 65.1681,12.6708 9.496,6.4913 14.329,14.329 14.329,23.825 0,5.83933 -1.82833,10.9984 -5.66926,15.5054 -3.65667,4.49289 -10.4881,8.50388 -20.4944,11.6645 -10.1621,3.16061 -26.8298,5.00312 -50.1729,5.3291z"
   id="glyph44" />
   <glyph
   unicode="§"
   horiz-adv-x="556"
   d="M70.0011 -34.0014l88.001 12.9968c9.17002,-42.3352 23.825,-72.1555 43.8375,-89.3333 19.8282,-17.1637 47.154,-25.6676 81.4955,-25.6676 33.4911,0 59.4988,8.50388 78.3349,25.5117 18.8361,16.8235 28.3321,36.8218 28.3321,59.6547 0,16.5117 -5.83933,31.8329 -17.6739,45.8359 -20.1684,24.5054 -75.6562,64.502 -166.322,119.834 -48.3446,29.6644 -82.0058,52.8375 -101.012,69.5051 -19.1621,16.8377 -34.8234,36.6659 -46.8281,59.3288 -12.1606,22.8329 -18.17,46.6721 -18.17,71.3334 0,31.3368 9.83616,59.6689 29.3384,84.9963 19.6581,25.5117 46.5021,43.1714 80.8294,53.3335 -23.1589,22.0109 -39.5005,42.3352 -48.9965,61.0012 -9.496,18.8361 -14.1731,38.6643 -14.1731,59.6689 0,41.669 16.3416,77.6688 48.8406,108.169 32.499,30.5006 75.5003,45.8359 129.16,45.8359 60.8311,0 108.339,-14.4991 142.511,-43.3415 34.1573,-28.8282 54.6658,-70.8232 61.4973,-125.659l-91.0057 -8.99994c-6.83145,39.5005 -18.8361,67.1665 -35.8297,82.6577 -17.1637,15.5054 -40.1667,23.3432 -69.1649,23.3432 -29.8345,0 -53.9997,-8.00782 -72.5098,-24.1652 -18.3259,-16.0015 -27.4959,-33.8455 -27.4959,-53.3335 0,-16.8377 5.83933,-32.3431 17.6739,-46.6721 18.3259,-21.9967 68.1586,-57.8264 149.498,-107.333 51.165,-31.3368 85.6625,-54.1697 103.662,-68.8389 23.003,-19.6581 39.9966,-39.8265 50.839,-60.661 10.8283,-20.8345 16.3275,-43.4974 16.3275,-67.8326 0,-36.836 -11.8346,-68.3287 -35.5037,-94.3364 -13.6629,-14.9952 -38.6643,-30.1604 -74.9901,-45.3257 25.9935,-19.9983 45.4958,-41.343 58.3225,-64.0059 12.8409,-22.8329 19.1763,-47.3383 19.1763,-73.3318 0,-28.6723 -8.16373,-55.6721 -24.5054,-81.3396 -16.3275,-25.4975 -39.6706,-44.9997 -70.3271,-58.4925 -30.6707,-13.507 -63.8358,-20.3385 -99.3395,-20.3385 -62.3335,0 -111.826,15.5054 -148.336,46.5021 -36.4958,31.1667 -58.3225,74.3381 -65.4941,129.5zm286.666 153.665c24.1652,12.3306 41.995,26.8298 53.8296,43.1714 11.6645,16.4975 17.5038,32.499 17.5038,48.1603 0,18.5101 -8.33381,38.1683 -25.1715,58.6768 -16.9936,20.4944 -53.6595,47.9902 -109.828,82.4877 -44.6737,27.34 -77.9948,49.8469 -100.006,67.3366 -26.3337,-14.8251 -44.9997,-29.8345 -56.1682,-44.8296 -11.1543,-14.9952 -16.8235,-31.6628 -16.8235,-49.8328 0,-20.4944 7.49759,-39.9966 22.3227,-58.6626 15.0094,-18.5101 48.6706,-43.3415 101.168,-74.168 43.8375,-25.8376 81.5097,-49.8328 113.173,-72.3397z"
   id="glyph46" />
   <glyph
   unicode=""
   horiz-adv-x="750"
   d="M125.007 0l0 625.007 500 0 0 -625.007 -500 0zm15.9873 16.0015l468.011 0 0 593.004 -468.011 0 0 -593.004z"
   id="glyph48" />
   <glyph
   unicode=""
   horiz-adv-x="750"
   d="M125.007 0l0 625.007 500 0 0 -625.007 -500 0zm15.9873 16.0015l468.011 0 0 593.004 -468.011 0 0 -593.004z"
   id="glyph50" />
   <glyph
   unicode="t"
   horiz-adv-x="277"
   d="M257.002 78.505l12.0046 -77.6688c-24.6754,-5.1732 -46.8422,-7.83775 -66.1744,-7.83775 -31.8329,0 -56.4941,5.00312 -74.168,15.1653 -17.5038,10.1763 -29.8345,23.3432 -36.9919,39.8407 -7.17161,16.4975 -10.6724,51.165 -10.6724,104.002l0 298.997 -64.998 0 0 68.0027 64.998 0 0 128.324 88.001 52.8375 0 -181.161 88.001 0 0 -68.0027 -88.001 0 0 -304c0,-25.1715 1.50235,-41.343 4.66296,-48.5005 3.00471,-7.17161 8.00782,-12.8409 15.0094,-17.1637 6.98736,-4.1669 16.9936,-6.33539 29.9904,-6.33539 9.66608,0 22.5069,1.1622 38.3383,3.50077z"
   id="glyph52" />
   <glyph
   unicode="c"
   horiz-adv-x="500"
   d="M404.997 190.005l86.0026 -12.0046c-9.496,-59.1729 -33.5053,-105.335 -72.3397,-138.84 -38.8202,-33.4911 -86.6546,-50.1587 -143.163,-50.1587 -70.8373,0 -127.828,23.1589 -170.829,69.5051 -43.1714,46.332 -64.672,112.662 -64.672,198.991 0,55.9981 9.3401,104.839 27.836,146.834 18.4959,41.8391 46.6721,73.3318 84.6703,94.1663 37.8281,21.0046 79.0011,31.5069 123.661,31.5069 56.1682,0 102.33,-14.1731 138.004,-42.6753 35.8297,-28.5022 58.8327,-68.9948 68.8389,-121.336l-85.0105 -12.9968c-8.16373,34.8376 -22.4928,61.0012 -43.3273,78.6751 -20.6644,17.4897 -45.6659,26.3337 -75.0043,26.3337 -44.3336,0 -80.3334,-15.8314 -108.169,-47.5084 -27.666,-31.8329 -41.499,-81.8357 -41.499,-150.49 0,-69.6752 13.3369,-120.174 40.0108,-151.667 26.8298,-31.5069 61.6532,-47.3383 104.499,-47.3383 34.6675,0 63.4957,10.5023 86.4987,31.6628 23.1589,21.0046 37.8281,53.5036 43.9934,97.3411z"
   id="glyph54" />
   <glyph
   unicode="R"
   horiz-adv-x="722"
   d="M79.0011 0l0 715.999 317.337 0c63.8358,0 112.322,-6.50547 145.501,-19.3322 33.1651,-12.8267 59.6547,-35.5037 79.4971,-68.0027 19.8282,-32.499 29.6644,-68.4988 29.6644,-107.829 0,-50.839 -16.4975,-93.6703 -49.3367,-128.508 -32.825,-34.8234 -83.494,-56.8201 -152.163,-66.3303 25.1715,-11.9905 44.1635,-23.9951 57.1603,-35.6596 27.666,-25.3416 53.8438,-57.1744 78.3349,-95.3427l123.831 -194.994 -118.332 0 -94.6624 149.002c-27.4959,43.1714 -50.3288,75.9964 -68.1728,98.8293 -17.9999,22.8329 -33.9872,38.6643 -48.1603,47.8343 -14.0031,8.99994 -28.5022,15.3353 -43.1714,19.0062 -10.6582,2.15432 -28.162,3.33069 -52.6674,3.33069l-109.658 0 0 -318.003 -95.0026 0zm95.0026 399.994l203.328 0c43.3415,0 77.0027,4.50706 101.338,13.507 24.3353,8.82987 42.8312,23.1589 55.3319,43.0013 12.6708,19.6581 18.992,41.0029 18.992,64.1618 0,33.8313 -12.1606,61.8374 -36.6659,83.664 -24.4912,21.8408 -63.1555,32.6691 -115.993,32.6691l-226.331 0 0 -237.003z"
   id="glyph56" />
   <glyph
   unicode="A"
   horiz-adv-x="667"
   d="M-1.50235 0l274.675 715.999 104.158 0 291.499 -715.999 -107.829 0 -82.8278 217.005 -301.505 0 -77.6688 -217.005 -100.502 0zm206.007 293.993l243.991 0 -74.6641 198.509c-22.4928,60.3351 -39.5005,110.168 -51.3351,149.498 -9.82199,-46.6721 -22.9888,-92.4939 -39.5005,-137.834l-78.4908 -210.173z"
   id="glyph58" />
   <glyph
   unicode="0"
   horiz-adv-x="556"
   d="M41.995 353.336c0,84.5003 8.67396,152.829 26.0077,204.49 17.5038,51.8453 43.3273,91.6719 77.6688,119.508 34.1573,27.836 77.3286,41.669 129.33,41.669 38.3383,0 71.9995,-7.66767 101.168,-23.1731 28.9982,-15.4912 52.9934,-37.8281 71.6594,-66.9964 18.666,-28.9982 33.3352,-64.502 44.0076,-106.327 10.8283,-41.8391 16.1574,-98.3332 16.1574,-169.171 0,-84.0042 -8.65979,-152.007 -25.8235,-203.668 -17.1637,-51.8312 -43.0013,-91.6719 -77.3428,-119.664 -34.1573,-28.0061 -77.4987,-42.0092 -129.826,-42.0092 -68.8389,0 -122.995,24.5054 -162.339,73.672 -47.1682,59.9949 -70.6673,157.166 -70.6673,291.669zm89.9994 -0.340155c0,-117.835 13.6771,-196.156 41.173,-234.835 27.4959,-38.8344 61.4973,-58.1666 101.834,-58.1666 40.3368,0 74.3381,19.5022 101.834,58.3366 27.4959,39.0045 41.1588,117.169 41.1588,234.665 0,117.835 -13.6629,196.17 -41.1588,234.835 -27.34,38.8344 -61.6673,58.1666 -102.84,58.1666 -40.3226,0 -72.6657,-17.1637 -96.8309,-51.3351 -30.1604,-43.4974 -45.1698,-124.157 -45.1698,-241.666z"
   id="glyph60" />
   <glyph
   unicode="ù"
   horiz-adv-x="556"
   d="M404.997 0l0 77.1727c-40.3368,-58.8327 -95.0026,-88.1711 -164.167,-88.1711 -30.5006,0 -59.0028,5.82516 -85.4924,17.5038 -26.5038,11.8346 -46.1761,26.4896 -59.0028,44.1635 -12.8409,17.8298 -21.8408,39.5005 -26.9998,65.1681 -3.50077,17.3337 -5.3291,44.6596 -5.3291,81.9916l0 321.178 88.001 0 0 -287.176c0,-45.8359 1.82833,-76.8326 5.3291,-92.664 5.49918,-23.1731 17.1637,-41.173 35.1636,-54.3256 17.8298,-13.1668 39.8407,-19.8424 66.1602,-19.8424 26.3337,0 51.0091,6.67555 74.0121,20.1684 22.9888,13.507 39.3305,32.0029 48.9965,55.1619 9.496,23.1731 14.329,57.0044 14.329,101.168l0 277.51 88.001 0 0 -519.006 -79.0011 0zm-75.0043 582.998l-70.9933 0 -113.002 136.998 118.006 0 65.9901 -136.998z"
   id="glyph62" />
   <glyph
   unicode="è"
   horiz-adv-x="556"
   d="M420.007 167.994l90.9916 -11.9905c-14.159,-52.8375 -40.6627,-94.0104 -79.3271,-123.165 -38.6643,-29.1683 -88.001,-43.8375 -148.166,-43.8375 -75.6704,0 -135.665,23.329 -179.999,70.0011 -44.3336,46.5021 -66.5004,111.996 -66.5004,196.17 0,86.9947 22.3227,154.657 67.1665,202.662 44.8296,48.1603 102.996,72.1696 174.5,72.1696 69.1649,0 125.659,-23.4991 169.497,-70.6673 43.8375,-47.1682 65.8342,-113.498 65.8342,-199.005 0,-5.15902 -0.170078,-12.9968 -0.49606,-23.329l-386.502 0c3.33069,-56.8343 19.3322,-100.502 48.3304,-130.676 28.8282,-30.1604 64.998,-45.3257 108.169,-45.3257 32.1589,0 59.6547,8.50388 82.3318,25.4975 22.8329,17.0078 40.8328,44.1635 54.1697,81.4955zm-288.012 141.009l289.004 0c-3.82675,43.6674 -14.9952,76.3365 -33.1651,98.1632 -27.836,33.8313 -64.1618,50.839 -108.665,50.839 -40.3368,0 -74.168,-13.507 -101.664,-40.5068 -27.34,-26.9998 -42.5052,-63.1697 -45.5099,-108.495zm218.011 273.995l-71.0074 0 -113.002 136.998 118.006 0 66.0043 -136.998z"
   id="glyph64" />
   <glyph
   unicode="×"
   horiz-adv-x="584"
   d="M78.6609 199.671l153.835 153.835 -153.325 153.325 59.4988 59.4988 153.325 -153.169 152.843 152.843 58.6626 -59.1729 -152.503 -152.829 153.339 -153.339 -59.4988 -59.4988 -153.339 153.339 -153.835 -153.835 -59.0028 59.0028z"
   id="glyph66" />
   <glyph
   unicode="Æ"
   horiz-adv-x="1000"
   d="M0.49606 0l344.166 715.999 588.341 0 0 -84.0042 -361.004 0 0 -220.988 336.003 0 0 -84.0042 -336.003 0 0 -242.998 374.001 0 0 -84.0042 -469.003 0 0 206.999 -274.491 0 -99.5096 -206.999 -102.5 0zm242.332 291.003l234.169 0 0 340.992 -70.157 0 -164.012 -340.992z"
   id="glyph68" />
   <glyph
   unicode="µ"
   horiz-adv-x="576"
   d="M496.995 519.006l0 -519.006 -77.9948 0 0 62.9996c-16.9936,-26.1636 -33.8313,-44.1635 -50.3288,-53.8296 -22.8329,-13.507 -49.5068,-20.1684 -79.8373,-20.1684 -27.1699,0 -50.995,5.3291 -71.9995,16.1716 -15.6613,8.16373 -32.8392,24.1652 -51.8312,48.3304l0 -252.509 -88.001 0 0 718.011 88.001 0 0 -219.173c0,-79.4971 4.1669,-131.002 12.6566,-154.671 8.50388,-23.4991 22.3369,-41.995 41.343,-55.6579 19.1621,-13.6771 41.0029,-20.5085 65.8342,-20.5085 25.9935,0 49.3225,7.17161 70.0011,21.5007 20.4944,14.1731 34.9935,32.6691 43.4974,55.176 8.50388,22.6628 12.6708,73.5019 12.6708,152.659l0 220.676 85.9884 0z"
   id="glyph70" />
   <glyph
   unicode="¤"
   horiz-adv-x="556"
   d="M104.002 469.329l-68.0027 66.5004 56.3382 58.1666 67.8326 -68.0027c34.4974,23.3432 72.9917,35.0077 115.667,35.0077 42.8312,0 81.4955,-11.6645 115.667,-35.0077l67.8326 68.0027 56.6642 -58.1666 -68.0027 -66.5004c23.329,-35.8297 35.0077,-74.168 35.0077,-114.831 0,-41.0029 -11.6787,-79.4971 -35.0077,-115.327l68.0027 -66.5004 -56.6642 -58.6768 -67.8326 69.009c-34.1714,-24.0093 -72.8358,-35.9998 -115.667,-35.9998 -42.6753,0 -81.1696,11.9905 -115.667,35.9998l-67.8326 -69.009 -56.3382 58.6768 68.0027 66.5004c-23.329,35.8297 -35.0077,74.3239 -35.0077,115.327 0,40.6627 11.6787,79.0011 35.0077,114.831zm44.9997 -115.001c0,-35.3336 12.3306,-65.324 37.162,-90.1553 24.6754,-24.8455 54.4957,-37.1761 89.3333,-37.1761 34.8376,0 64.672,12.3306 89.3333,37.1761 24.8313,24.8313 37.1761,54.8217 37.1761,90.1553 0,34.8376 -12.3448,64.672 -36.836,89.5034 -24.6754,24.8313 -54.5099,37.162 -89.6735,37.162 -34.8376,0 -64.6579,-12.3306 -89.3333,-37.162 -24.8313,-24.8313 -37.162,-54.6658 -37.162,-89.5034z"
   id="glyph72" />
   <glyph
   unicode=""
   horiz-adv-x="750"
   d="M125.007 0l0 625.007 500 0 0 -625.007 -500 0zm15.9873 16.0015l468.011 0 0 593.004 -468.011 0 0 -593.004z"
   id="glyph74" />
   <glyph
   unicode=""
   horiz-adv-x="750"
   d="M125.007 0l0 625.007 500 0 0 -625.007 -500 0zm15.9873 16.0015l468.011 0 0 593.004 -468.011 0 0 -593.004z"
   id="glyph76" />
   <glyph
   unicode="q"
   horiz-adv-x="556"
   d="M396.494 -199.005l0 254.677c-13.6629,-19.1763 -32.825,-35.0077 -57.3303,-47.6784 -24.4912,-12.6566 -50.669,-18.992 -78.3349,-18.992 -61.4973,0 -114.335,24.5054 -158.824,73.672 -44.3336,48.9965 -66.5004,116.333 -66.5004,201.655 0,52.0012 8.99994,98.6734 26.9998,140.002 18.17,41.173 44.3336,72.4956 78.6609,93.6703 34.3415,21.3306 71.9995,32.0029 113.002,32.0029 64.1618,0 114.505,-26.8439 151.327,-80.6735l0 69.6752 79.0011 0 0 -718.011 -88.001 0zm-270.99 460.003c0,-66.6704 14.0031,-116.659 41.995,-149.994 28.0061,-33.3352 61.4973,-50.0028 100.672,-50.0028 37.5021,0 69.661,15.8314 96.8309,47.4942 26.9998,31.8329 40.4927,80.0074 40.4927,144.665 0,69.009 -14.329,120.84 -42.8312,155.678 -28.5022,34.8234 -61.8232,52.1572 -100.332,52.1572 -38.1683,0 -70.4972,-16.1574 -97.001,-48.5005 -26.4896,-32.3289 -39.8265,-82.8278 -39.8265,-151.497z"
   id="glyph78" />
   <glyph
   unicode="`"
   horiz-adv-x="332"
   d="M226.005 582.998l-71.0074 0 -113.002 136.998 118.006 0 66.0043 -136.998z"
   id="glyph80" />
   <glyph
   unicode="O"
   horiz-adv-x="777"
   d="M48.0044 348.503c0,118.658 31.9888,211.662 95.8246,278.828 63.8358,67.1665 146.168,100.672 247.165,100.672 66.1744,0 125.673,-15.8314 178.837,-47.3383 53.0075,-31.4927 93.5002,-75.5003 121.336,-131.994 27.836,-56.3382 41.8391,-120.344 41.8391,-191.833 0,-72.5098 -14.6692,-137.508 -44.0076,-194.668 -29.3384,-57.3303 -70.8373,-100.672 -124.497,-129.996 -53.8296,-29.5085 -111.84,-44.1777 -174.004,-44.1777 -67.4925,0 -127.672,16.3416 -180.835,48.8406 -52.9934,32.499 -93.3301,76.8326 -120.67,133.171 -27.3258,56.154 -40.9887,115.653 -40.9887,178.497zm97.9931 -1.67243c0,-86.1585 23.1731,-153.991 69.5051,-203.498 46.332,-49.4926 104.499,-74.3381 174.5,-74.3381 71.3334,0 129.826,25.0014 176.002,75.0043 45.9918,50.0028 68.9948,120.996 68.9948,212.994 0,58.1666 -9.83616,109.006 -29.4943,152.347 -19.6723,43.3273 -48.5005,76.9885 -86.3428,100.828 -37.9982,23.8392 -80.4893,35.8297 -127.657,35.8297 -67.0106,0 -124.667,-23.003 -173.012,-68.9948 -48.3304,-46.006 -72.4956,-122.669 -72.4956,-230.172z"
   id="glyph82" />
   <glyph
   unicode="&gt;"
   horiz-adv-x="584"
   d="M528.006 313l-472.008 -203.002 0 88.001 373.009 155.508 -373.009 153.495 0 88.001 472.008 -199.997 0 -82.0058z"
   id="glyph84" />
   <glyph
   unicode="-"
   horiz-adv-x="332"
   d="M30.9967 215.007l0 87.9868 271.997 0 0 -87.9868 -271.997 0z"
   id="glyph86" />
   <glyph
   unicode="ö"
   horiz-adv-x="556"
   d="M32.9951 259.496c0,95.8388 26.6738,166.832 80.1774,213.008 44.4895,38.3242 98.9994,57.5004 163.161,57.5004 71.1633,0 129.5,-23.3432 174.84,-70.0011 45.1556,-46.5021 67.8326,-111.004 67.8326,-193.166 0,-66.6704 -10.0062,-118.998 -30.0045,-157.166 -19.9983,-38.1683 -49.1666,-67.8326 -87.505,-89.0073 -38.1683,-21.1605 -79.9932,-31.6628 -125.163,-31.6628 -72.6657,0 -131.328,23.1589 -176.172,69.661 -44.8296,46.5021 -67.1665,113.498 -67.1665,200.833zm89.9994 -0.155905c0,-66.3445 14.4991,-116.007 43.5115,-148.846 29.1541,-32.9951 65.6642,-49.4926 109.828,-49.4926 43.6674,0 79.9932,16.4975 109.162,49.6627 28.9982,33.1651 43.5115,83.664 43.5115,151.497 0,64.0059 -14.6692,112.506 -43.8375,145.346 -29.1683,32.9951 -65.5082,49.4926 -108.836,49.4926 -44.1635,0 -80.6735,-16.3275 -109.828,-49.1666 -29.0124,-32.825 -43.5115,-82.3318 -43.5115,-148.492zm25.0014 323.658l0 100.006 91.9978 0 0 -100.006 -91.9978 0zm181.997 0l0 100.006 92.012 0 0 -100.006 -92.012 0z"
   id="glyph88" />
   <glyph
   unicode="å"
   horiz-adv-x="556"
   d="M404.997 64.998c-32.6691,-27.836 -64.1618,-47.3383 -94.3364,-58.8327 -30.1604,-11.4944 -62.4894,-17.1637 -97.1569,-17.1637 -57.0044,0 -100.842,13.833 -131.498,41.669 -30.6707,27.666 -46.006,63.1697 -46.006,106.327 0,25.3416 5.83933,48.5005 17.3337,69.5051 11.6645,20.9904 26.8298,37.658 45.4958,50.3288 18.8361,12.6708 39.8407,22.3369 63.3398,28.8282 17.3337,4.50706 43.4974,8.84404 78.3349,13.1668 70.9933,8.33381 123.491,18.5101 156.996,30.1746 0.340155,12.0046 0.49606,19.6723 0.49606,22.8329 0,35.6596 -8.33381,60.8311 -25.0014,75.5003 -22.4928,19.8282 -55.9981,29.6644 -100.332,29.6644 -41.499,0 -72.1696,-7.32751 -91.8278,-21.8266 -19.8282,-14.4991 -34.3415,-40.1667 -43.8375,-77.1727l-86.0026 12.0046c7.83775,36.836 20.6786,66.6563 38.6785,89.3333 17.9999,22.6628 43.9934,39.9966 77.9948,52.3272 33.8313,12.1747 73.3318,18.34 117.991,18.34 44.3336,0 80.5034,-5.1732 108.339,-15.6755 27.666,-10.5023 48.1745,-23.4991 61.1713,-39.3305 12.9968,-15.8314 22.1668,-35.8297 27.4959,-59.9949 2.83463,-15.0094 4.33698,-42.0092 4.33698,-80.8436l0 -116.659c0,-81.4955 1.82833,-133.001 5.49918,-154.827 3.50077,-21.8408 10.8283,-42.6753 21.5007,-62.6736l-91.9978 0c-8.84404,18.4959 -14.4991,40.1667 -17.0078,64.998zm-7.00153 195.008c-32.0029,-13.0109 -79.9932,-24.0093 -143.999,-33.0092 -36.3258,-5.15902 -61.9933,-10.9984 -77.0027,-17.5038 -14.9952,-6.4913 -26.4896,-15.9873 -34.6675,-28.3321 -8.16373,-12.5007 -12.3306,-26.3337 -12.3306,-41.6549 0,-23.1731 8.84404,-42.6753 26.6738,-58.1666 17.8298,-15.5054 43.8233,-23.3432 77.9948,-23.3432 33.8313,0 64.0059,7.34169 90.4955,22.1668 26.3337,14.6692 45.8359,34.8376 58.1666,60.3351 9.51018,19.8282 14.1731,48.9965 14.1731,87.505l0.49606 32.0029zm-200.493 414.493c0,23.8392 8.65979,44.3336 25.9935,61.6673 17.3337,17.1637 37.8423,25.8376 61.4973,25.8376 24.0093,0 44.5037,-8.67396 61.8374,-26.1778 17.1637,-17.4897 25.6676,-38.4942 25.6676,-63.3256 0,-25.1715 -8.50388,-46.332 -25.6676,-63.4957 -17.3337,-17.3337 -37.658,-26.0077 -61.3272,-26.0077 -24.3353,0 -44.9997,8.67396 -62.1634,26.1636 -17.1778,17.5038 -25.8376,39.1746 -25.8376,65.3382zm36.9919 -0.49606c0,-15.3353 5.1732,-28.0061 15.3353,-38.5084 10.1763,-10.3322 22.3369,-15.4912 36.1699,-15.4912 14.0031,0 25.9935,5.15902 36.1699,15.4912 10.1621,10.5023 15.3353,23.003 15.3353,37.5021 0,14.6692 -5.00312,26.9998 -15.0094,37.5021 -10.1621,10.3322 -22.1668,15.5054 -36.4958,15.5054 -13.833,0 -25.9935,-5.1732 -36.1699,-15.3353 -10.1621,-10.1763 -15.3353,-22.5069 -15.3353,-36.6659z"
   id="glyph90" />
   <glyph
   unicode="Ô"
   horiz-adv-x="777"
   d="M48.0044 348.503c0,118.658 31.9888,211.662 95.8246,278.828 63.8358,67.1665 146.168,100.672 247.165,100.672 66.1744,0 125.673,-15.8314 178.837,-47.3383 53.0075,-31.4927 93.5002,-75.5003 121.336,-131.994 27.836,-56.3382 41.8391,-120.344 41.8391,-191.833 0,-72.5098 -14.6692,-137.508 -44.0076,-194.668 -29.3384,-57.3303 -70.8373,-100.672 -124.497,-129.996 -53.8296,-29.5085 -111.84,-44.1777 -174.004,-44.1777 -67.4925,0 -127.672,16.3416 -180.835,48.8406 -52.9934,32.499 -93.3301,76.8326 -120.67,133.171 -27.3258,56.154 -40.9887,115.653 -40.9887,178.497zm97.9931 -1.67243c0,-86.1585 23.1731,-153.991 69.5051,-203.498 46.332,-49.4926 104.499,-74.3381 174.5,-74.3381 71.3334,0 129.826,25.0014 176.002,75.0043 45.9918,50.0028 68.9948,120.996 68.9948,212.994 0,58.1666 -9.83616,109.006 -29.4943,152.347 -19.6723,43.3273 -48.5005,76.9885 -86.3428,100.828 -37.9982,23.8392 -80.4893,35.8297 -127.657,35.8297 -67.0106,0 -124.667,-23.003 -173.012,-68.9948 -48.3304,-46.006 -72.4956,-122.669 -72.4956,-230.172zm244.005 496.173l-54.4957 -82.9979 -100.006 0 104.499 136.998 93.0041 0 111.5 -136.998 -100.006 0 -54.4957 82.9979z"
   id="glyph92" />
   <glyph
   unicode="Ã"
   horiz-adv-x="667"
   d="M-1.50235 0l274.675 715.999 104.158 0 291.499 -715.999 -107.829 0 -82.8278 217.005 -301.505 0 -77.6688 -217.005 -100.502 0zm206.007 293.993l243.991 0 -74.6641 198.509c-22.4928,60.3351 -39.5005,110.168 -51.3351,149.498 -9.82199,-46.6721 -22.9888,-92.4939 -39.5005,-137.834l-78.4908 -210.173zm-41.499 465.007c-0.340155,33.5053 8.99994,60.165 27.8219,80.1633 18.5101,19.8424 42.3352,29.8345 71.3334,29.8345 20.1684,0 47.6784,-8.50388 82.3459,-25.6676 19.1621,-9.496 34.4974,-14.329 45.8218,-14.329 10.5023,0 18.5101,2.83463 24.0093,8.50388 5.49918,5.49918 9.32593,16.8235 11.6645,33.4911l62.9996 0c-1.00629,-36.9919 -10.3322,-64.6579 -28.0061,-83.168 -17.6597,-18.4959 -39.9966,-27.8219 -67.3224,-27.8219 -20.3385,0 -47.3383,9.15585 -80.6735,27.3258 -21.8266,11.8346 -37.8281,17.6739 -48.0044,17.6739 -10.9984,0 -19.9983,-3.84092 -26.6597,-11.6787 -7.17161,-7.66767 -10.6724,-19.1621 -10.3322,-34.3273l-64.998 0z"
   id="glyph94" />
   <glyph
   unicode="²"
   horiz-adv-x="332"
   d="M12.0046 357.999c1.99841,18.4959 9.66608,37.162 22.9888,55.6721 20.5085,27.9919 54.3398,58.9886 101.338,92.99 46.8422,34.0014 74.8342,55.8422 83.5081,65.6783 12.1606,13.3228 18.1558,26.9998 18.1558,40.9887 0,15.6755 -5.65508,28.5022 -16.9936,38.5084 -11.3385,10.1621 -28.0061,15.1653 -50.1729,15.1653 -21.3306,0 -37.332,-3.84092 -47.8343,-11.5086 -10.4881,-7.6535 -19.1621,-22.4928 -25.9935,-44.4895l-73.998 7.99365c9.32593,36.3399 25.6676,62.9996 48.8265,80.1633 23.3432,17.1778 56.6642,25.8376 100.006,25.8376 48.9965,0 84.9963,-9.66608 107.829,-28.9982 22.8329,-19.1621 34.3415,-42.8312 34.3415,-70.6673 0,-27.34 -9.51018,-53.3335 -28.6723,-77.9948 -14.4991,-18.17 -47.6643,-46.1761 -99.3395,-83.8341 -26.9998,-19.8424 -45.9918,-35.6738 -57.3303,-47.5084l186.334 0 0 -57.9965 -302.993 0z"
   id="glyph96" />
   <glyph
   unicode="¡"
   horiz-adv-x="332"
   d="M218.337 519.006l0 -100.006 -100.998 0 0 100.006 100.998 0zm-23.003 -178l26.9998 -379.174 0 -158.838 -109.006 0 0 158.838 25.0014 379.174 57.0044 0z"
   id="glyph98" />
   <glyph
   unicode=""
   horiz-adv-x="750"
   d="M125.007 0l0 625.007 500 0 0 -625.007 -500 0zm15.9873 16.0015l468.011 0 0 593.004 -468.011 0 0 -593.004z"
   id="glyph100" />
   <glyph
   unicode=""
   horiz-adv-x="750"
   d="M125.007 0l0 625.007 500 0 0 -625.007 -500 0zm15.9873 16.0015l468.011 0 0 593.004 -468.011 0 0 -593.004z"
   id="glyph102" />
   <glyph
   unicode="n"
   horiz-adv-x="556"
   d="M66.0043 0l0 519.006 79.0011 0 0 -73.672c37.9982,56.4941 92.99,84.6703 164.834,84.6703 31.3226,0 59.9949,-5.66926 86.1585,-16.8377 26.1636,-11.1684 45.8359,-25.9935 58.8327,-44.1635 12.9968,-18.17 22.1668,-39.8407 27.34,-64.8421 3.16061,-16.3275 4.83304,-44.8296 4.83304,-85.4924l0 -318.669 -88.001 0 0 315.338c0,35.8297 -3.33069,62.6594 -10.1621,80.3334 -6.84563,17.6597 -19.0062,31.8329 -36.3399,42.4911 -17.3337,10.5023 -37.8281,15.8314 -61.1713,15.8314 -37.332,0 -69.4909,-11.8204 -96.6608,-35.6596 -27.1699,-23.6691 -40.6627,-68.8389 -40.6627,-135.169l0 -283.165 -88.001 0z"
   id="glyph104" />
   <glyph
   unicode="]"
   horiz-adv-x="277"
   d="M212.994 -199.005l-193.988 0 0 73.0058 106.001 0 0 769.006 -106.001 0 0 72.9917 193.988 0 0 -915.004z"
   id="glyph106" />
   <glyph
   unicode="L"
   horiz-adv-x="556"
   d="M73.0058 0l0 715.999 94.9884 0 0 -631.994 352.004 0 0 -84.0042 -446.992 0z"
   id="glyph108" />
   <glyph
   unicode=";"
   horiz-adv-x="277"
   d="M88.9931 419.001l0 100.006 100.006 0 0 -100.006 -100.006 0zm0 -419.001l0 100.006 100.006 0 0 -100.006c0,-36.836 -6.50547,-66.6704 -19.6723,-89.3333 -12.9968,-22.6628 -33.8313,-40.3368 -62.3335,-52.6674l-23.9951 37.6722c18.666,8.16373 32.3289,20.1684 41.0029,35.9998 8.82987,15.8314 13.833,38.6643 14.8393,68.3287l-49.8469 0z"
   id="glyph110" />
   <glyph
   unicode="*"
   horiz-adv-x="389"
   d="M30.9967 584.996l22.3369 69.009c51.6611,-18.17 88.9931,-33.8455 112.506,-47.1682 -6.17949,58.6626 -9.51018,99.1695 -9.83616,121.166l70.9933 0c-0.99212,-32.173 -4.66296,-72.3397 -11.3243,-120.67 33.4911,16.8377 71.8295,32.499 115.001,46.6721l22.3227 -69.009c-41.1588,-13.6629 -81.4955,-22.8329 -121.166,-27.3258 19.8424,-17.1637 47.6643,-48.0044 83.664,-92.1679l-58.3225 -41.499c-18.8361,25.6676 -41.173,60.661 -66.8405,104.825 -24.1652,-45.8218 -45.3257,-80.8294 -63.4957,-104.825l-57.3303 41.499c37.488,46.5021 64.502,77.1586 80.6593,92.1679 -41.8249,8.16373 -81.4955,17.3337 -119.168,27.3258z"
   id="glyph112" />
   <glyph
   unicode="ó"
   horiz-adv-x="556"
   d="M32.9951 259.496c0,95.8388 26.6738,166.832 80.1774,213.008 44.4895,38.3242 98.9994,57.5004 163.161,57.5004 71.1633,0 129.5,-23.3432 174.84,-70.0011 45.1556,-46.5021 67.8326,-111.004 67.8326,-193.166 0,-66.6704 -10.0062,-118.998 -30.0045,-157.166 -19.9983,-38.1683 -49.1666,-67.8326 -87.505,-89.0073 -38.1683,-21.1605 -79.9932,-31.6628 -125.163,-31.6628 -72.6657,0 -131.328,23.1589 -176.172,69.661 -44.8296,46.5021 -67.1665,113.498 -67.1665,200.833zm89.9994 -0.155905c0,-66.3445 14.4991,-116.007 43.5115,-148.846 29.1541,-32.9951 65.6642,-49.4926 109.828,-49.4926 43.6674,0 79.9932,16.4975 109.162,49.6627 28.9982,33.1651 43.5115,83.664 43.5115,151.497 0,64.0059 -14.6692,112.506 -43.8375,145.346 -29.1683,32.9951 -65.5082,49.4926 -108.836,49.4926 -44.1635,0 -80.6735,-16.3275 -109.828,-49.1666 -29.0124,-32.825 -43.5115,-82.3318 -43.5115,-148.492zm80.0074 323.658l63.9917 136.998 116.007 0 -107.007 -136.998 -72.9917 0z"
   id="glyph114" />
   <glyph
   unicode="â"
   horiz-adv-x="556"
   d="M404.997 64.998c-32.6691,-27.836 -64.1618,-47.3383 -94.3364,-58.8327 -30.1604,-11.4944 -62.4894,-17.1637 -97.1569,-17.1637 -57.0044,0 -100.842,13.833 -131.498,41.669 -30.6707,27.666 -46.006,63.1697 -46.006,106.327 0,25.3416 5.83933,48.5005 17.3337,69.5051 11.6645,20.9904 26.8298,37.658 45.4958,50.3288 18.8361,12.6708 39.8407,22.3369 63.3398,28.8282 17.3337,4.50706 43.4974,8.84404 78.3349,13.1668 70.9933,8.33381 123.491,18.5101 156.996,30.1746 0.340155,12.0046 0.49606,19.6723 0.49606,22.8329 0,35.6596 -8.33381,60.8311 -25.0014,75.5003 -22.4928,19.8282 -55.9981,29.6644 -100.332,29.6644 -41.499,0 -72.1696,-7.32751 -91.8278,-21.8266 -19.8282,-14.4991 -34.3415,-40.1667 -43.8375,-77.1727l-86.0026 12.0046c7.83775,36.836 20.6786,66.6563 38.6785,89.3333 17.9999,22.6628 43.9934,39.9966 77.9948,52.3272 33.8313,12.1747 73.3318,18.34 117.991,18.34 44.3336,0 80.5034,-5.1732 108.339,-15.6755 27.666,-10.5023 48.1745,-23.4991 61.1713,-39.3305 12.9968,-15.8314 22.1668,-35.8297 27.4959,-59.9949 2.83463,-15.0094 4.33698,-42.0092 4.33698,-80.8436l0 -116.659c0,-81.4955 1.82833,-133.001 5.49918,-154.827 3.50077,-21.8408 10.8283,-42.6753 21.5007,-62.6736l-91.9978 0c-8.84404,18.4959 -14.4991,40.1667 -17.0078,64.998zm-7.00153 195.008c-32.0029,-13.0109 -79.9932,-24.0093 -143.999,-33.0092 -36.3258,-5.15902 -61.9933,-10.9984 -77.0027,-17.5038 -14.9952,-6.4913 -26.4896,-15.9873 -34.6675,-28.3321 -8.16373,-12.5007 -12.3306,-26.3337 -12.3306,-41.6549 0,-23.1731 8.84404,-42.6753 26.6738,-58.1666 17.8298,-15.5054 43.8233,-23.3432 77.9948,-23.3432 33.8313,0 64.0059,7.34169 90.4955,22.1668 26.3337,14.6692 45.8359,34.8376 58.1666,60.3351 9.51018,19.8282 14.1731,48.9965 14.1731,87.505l0.49606 32.0029zm-122.002 405.99l-54.4957 -82.9979 -99.9915 0 104.499 136.998 92.99 0 111.5 -136.998 -99.9915 0 -54.5099 82.9979z"
   id="glyph116" />
   <glyph
   unicode="Ñ"
   horiz-adv-x="722"
   d="M75.9964 0l0 715.999 97.3411 0 375.659 -561.993 0 561.993 91.0057 0 0 -715.999 -97.3411 0 -375.659 561.993 0 -561.993 -91.0057 0zm133.001 759c-0.325982,33.5053 8.99994,60.165 27.836,80.1633 18.4959,19.8424 42.3352,29.8345 71.3334,29.8345 20.1684,0 47.6643,-8.50388 82.3318,-25.6676 19.1621,-9.496 34.4974,-14.329 45.8359,-14.329 10.5023,0 18.4959,2.83463 23.9951,8.50388 5.49918,5.49918 9.3401,16.8235 11.6645,33.4911l62.9996 0c-0.99212,-36.9919 -10.3322,-64.6579 -27.9919,-83.168 -17.6739,-18.4959 -39.9966,-27.8219 -67.3366,-27.8219 -20.3385,0 -47.3383,9.15585 -80.6593,27.3258 -21.8408,11.8346 -37.8423,17.6739 -48.0044,17.6739 -10.9984,0 -19.9983,-3.84092 -26.6738,-11.6787 -7.15744,-7.66767 -10.6582,-19.1621 -10.3322,-34.3273l-64.998 0z"
   id="glyph118" />
   <glyph
   unicode="À"
   horiz-adv-x="667"
   d="M-1.50235 0l274.675 715.999 104.158 0 291.499 -715.999 -107.829 0 -82.8278 217.005 -301.505 0 -77.6688 -217.005 -100.502 0zm206.007 293.993l243.991 0 -74.6641 198.509c-22.4928,60.3351 -39.5005,110.168 -51.3351,149.498 -9.82199,-46.6721 -22.9888,-92.4939 -39.5005,-137.834l-78.4908 -210.173zm189.495 466.013l-70.9933 0 -113.002 136.998 117.991 0 66.0043 -136.998z"
   id="glyph120" />
   <glyph
   unicode="¯"
   horiz-adv-x="552"
   d="M-14.9952 764.995l0 62.9996 581.992 0 0 -62.9996 -581.992 0z"
   id="glyph122" />
   <glyph
   unicode=""
   horiz-adv-x="750"
   d="M125.007 0l0 625.007 500 0 0 -625.007 -500 0zm15.9873 16.0015l468.011 0 0 593.004 -468.011 0 0 -593.004z"
   id="glyph124" />
   <glyph
   unicode=""
   horiz-adv-x="750"
   d="M125.007 0l0 625.007 500 0 0 -625.007 -500 0zm15.9873 16.0015l468.011 0 0 593.004 -468.011 0 0 -593.004z"
   id="glyph126" />
   <glyph
   unicode="|"
   horiz-adv-x="259"
   d="M91.9978 -210.003l0 938.007 77.0027 0 0 -938.007 -77.0027 0z"
   id="glyph128" />
   <glyph
   unicode="k"
   horiz-adv-x="500"
   d="M66.3303 0l0 715.999 88.001 0 0 -407.832 208.005 210.84 113.669 0 -197.999 -192.84 217.997 -326.166 -108.339 0 -172.331 265.165 -61.0012 -59.3288 0 -205.836 -88.001 0z"
   id="glyph130" />
   <glyph
   unicode="Z"
   horiz-adv-x="610"
   d="M19.9983 0l0 87.505 366.673 458.997c26.3337,32.3289 50.995,60.8311 74.494,85.4924l-399.172 0 0 84.0042 512.005 0 0 -84.0042 -402.163 -496.655 -43.0013 -51.3351 457.169 0 0 -84.0042 -566.004 0z"
   id="glyph132" />
   <glyph
   unicode="I"
   horiz-adv-x="277"
   d="M93.0041 0l0 715.999 95.0026 0 0 -715.999 -95.0026 0z"
   id="glyph134" />
   <glyph
   unicode="8"
   horiz-adv-x="556"
   d="M177.504 388.16c-36.51,13.3369 -63.5098,32.5132 -81.1696,57.1744 -17.5038,24.8313 -26.3337,54.4957 -26.3337,88.9931 0,52.1713 18.666,95.8388 55.9981,131.342 37.5021,35.5037 87.1648,53.3335 149.328,53.3335 62.3335,0 112.676,-18.17 150.675,-54.5099 37.9982,-36.3258 57.0044,-80.4893 57.0044,-132.661 0,-33.1651 -8.67396,-62.1634 -26.0077,-86.6687 -17.3337,-24.6613 -43.6674,-43.6674 -79.1712,-57.0044 43.8375,-14.329 77.0027,-37.332 99.8356,-69.3208 22.8329,-31.8329 34.3415,-69.8452 34.3415,-114.179 0,-61.1571 -21.6707,-112.492 -64.8421,-154.161 -43.3273,-41.669 -100.162,-62.5035 -170.659,-62.5035 -70.4972,0 -127.331,20.8345 -170.673,62.6736 -43.1572,41.8249 -64.8279,93.9963 -64.8279,156.5 0,46.5021 11.8346,85.4924 35.5037,116.829 23.655,31.5069 57.3303,52.8375 100.998,64.1618zm-17.5038 149.342c0,-34.0014 10.8283,-61.6673 32.3289,-83.168 21.6707,-21.5007 50.0028,-32.3289 85.1664,-32.3289 34.1714,0 61.8374,10.6582 83.3381,31.9888 21.5007,21.3447 32.173,47.5084 32.173,78.505 0,32.3289 -11.0125,59.4988 -33.1793,81.4955 -21.9967,22.0109 -49.8328,33.0092 -83.3239,33.0092 -33.8313,0 -61.6673,-10.8425 -83.664,-32.3431 -21.8408,-21.5007 -32.8392,-47.154 -32.8392,-77.1586zm-28.9982 -330.999c0,-25.1715 5.82516,-49.3367 17.5038,-72.8358 11.6645,-23.329 29.3242,-41.499 52.9934,-54.3398 23.4991,-12.8267 48.8406,-19.3322 75.6704,-19.3322 42.3352,0 77.0027,13.507 104.158,40.5068 27.1699,26.9998 40.6769,61.3272 40.6769,102.996 0,42.3352 -14.0031,77.3286 -41.8391,105.009 -28.0061,27.666 -63.3398,41.499 -105.831,41.499 -41.669,0 -75.8405,-13.6771 -102.84,-41.0029 -26.9998,-27.34 -40.4927,-61.4973 -40.4927,-102.5z"
   id="glyph136" />
   <glyph
   unicode="'"
   horiz-adv-x="190"
   d="M67.5067 462.994l-22.5069 133.511 0 119.494 100.006 0 0 -119.494 -23.4991 -133.511 -53.9997 0z"
   id="glyph138" />
   <glyph
   unicode="ð"
   horiz-adv-x="556"
   d="M151.001 715.999l106.171 0c22.6628,-18.4959 42.8312,-34.8376 60.3351,-48.9965l105.491 48.9965 21.8408 -49.8328 -84.8404 -39.5005c104.002,-119.664 156.004,-243.495 156.004,-370.996 0,-82.3318 -22.6628,-147.5 -67.8326,-195.164 -45.1698,-47.6784 -102.67,-71.5035 -172.671,-71.5035 -82.8278,0 -147.67,31.4927 -194.158,94.3364 -30.1746,41.3289 -45.3399,97.6671 -45.3399,169.497 0,84.6703 21.0046,149.994 63.1697,196 41.995,46.1619 94.6624,69.1649 158.002,69.1649 18.992,0 35.4895,-1.99841 49.8328,-5.83933 14.4991,-3.82675 32.3289,-11.4944 53.8296,-22.8329 -11.6645,24.0093 -21.9967,42.6753 -30.8408,55.8422 -8.65979,13.3369 -21.8266,29.8345 -38.9903,49.3367l-134.163 -62.5035 -21.5007 50.3288 115.993 53.8296c-33.1651,26.5038 -66.6704,53.0075 -100.332,79.8373zm275.001 -456.999c0,62.1634 -14.8393,109.672 -44.3336,142.667 -29.5085,32.8392 -65.8342,49.3367 -108.836,49.3367 -42.5052,0 -77.4987,-16.4975 -105.165,-49.3367 -27.836,-32.9951 -41.669,-83.3381 -41.669,-151.001 0,-62.8295 14.329,-110.168 42.8312,-142.001 28.5022,-31.8329 64.176,-47.6643 107.007,-47.6643 41.669,0 77.1586,16.8377 106.327,50.3288 29.1683,33.5053 43.8375,82.6719 43.8375,147.67z"
   id="glyph140" />
   <glyph
   unicode="ß"
   horiz-adv-x="610"
   d="M75.0043 0l0 487.839c0,59.4988 7.32751,105.321 21.8266,137.324 14.6692,32.173 38.8344,57.3303 73.0058,75.5003 34.0014,18.17 72.3255,27.34 114.831,27.34 56.6642,0 100.998,-14.0031 132.661,-42.1651 31.8329,-28.1762 47.6784,-60.6752 47.6784,-97.6671 0,-16.6676 -3.00471,-33.6754 -8.84404,-51.165 -5.82516,-17.5038 -16.1574,-39.5005 -30.9967,-65.6783 -14.9952,-26.1636 -24.3353,-44.3336 -28.3321,-54.4957 -3.82675,-10.3322 -5.83933,-19.3322 -5.83933,-27.1699 0,-10.3322 3.67084,-20.6644 10.8425,-30.6565 6.83145,-10.5023 26.3337,-26.1778 58.8327,-47.3383 44.1635,-28.9982 73.5019,-52.1713 88.1569,-69.661 20.8345,-25.0014 31.1667,-54.68 31.1667,-88.6672 0,-45.1698 -16.6534,-83.8341 -50.1587,-116.007 -33.3352,-32.1589 -76.1664,-48.3304 -128.338,-48.3304 -41.0029,0 -77.1586,10.9984 -107.999,32.825 -30.9967,22.0109 -54.1697,50.1729 -69.4909,84.5003l75.9964 35.1777c16.1574,-30.3447 32.3289,-51.165 48.6706,-62.9996 16.3275,-11.6787 33.4911,-17.5038 51.3209,-17.5038 24.8455,0 46.006,8.50388 63.6657,25.3274 17.5038,17.0078 26.3337,36.836 26.3337,59.6689 0.340155,18.17 -4.83304,33.8313 -15.1653,46.8422 -6.66138,8.48971 -24.8313,22.9888 -54.1556,43.3273 -54.1697,36.6659 -87.505,64.1618 -100.176,82.6719 -12.9968,18.666 -19.5022,37.658 -19.5022,57.1603 0,12.6708 2.16849,25.4975 6.50547,38.4942 4.49289,13.1668 14.9952,33.8455 31.6628,62.5035 16.6676,28.6723 27.666,50.1729 32.8392,64.3319 5.15902,14.3432 8.16373,26.9998 8.99994,38.1683 0,20.1684 -8.99994,37.8423 -26.8298,53.3335 -17.844,15.5054 -41.669,23.1731 -71.3334,23.1731 -35.1777,0 -63.8358,-10.6724 -86.1727,-32.173 -22.4928,-21.5007 -33.6612,-68.0027 -33.6612,-139.662l0 -484.169 -88.001 0z"
   id="glyph142" />
   <glyph
   unicode="Î"
   horiz-adv-x="277"
   d="M93.0041 0l0 715.999 95.0026 0 0 -715.999 -95.0026 0zm46.9981 843.004l-54.4957 -82.9979 -100.006 0 104.499 136.998 93.0041 0 111.5 -136.998 -100.006 0 -54.4957 82.9979z"
   id="glyph144" />
   <glyph
   unicode="½"
   horiz-adv-x="834"
   d="M111.33 -28.0061l537.672 756.009 76.6625 0 -537.658 -756.009 -76.6767 0zm50.669 386.005l0 271.16c-33.1651,-26.3195 -69.5051,-44.8296 -109.006,-55.1619l0 60.0091c20.1684,6.4913 42.5052,18.3259 67.1665,35.4895 24.6754,17.1637 44.6737,35.6738 60.0091,55.502l52.8375 0 0 -366.999 -71.0074 0zm350.998 -372.995c1.99841,18.3259 9.83616,36.6659 23.6691,55.3319 20.4944,28.3321 54.1697,59.3288 100.828,93.3301 46.8422,33.8313 74.6783,55.828 83.5081,66.0043 12.0046,13.3228 17.9999,26.9998 17.9999,40.9887 0,15.6755 -5.66926,28.5022 -16.8377,38.5084 -11.1684,9.83616 -27.836,14.8251 -50.3288,14.8251 -21.3306,0 -37.332,-3.65667 -47.8343,-11.1543 -10.5023,-7.51176 -19.1621,-21.8408 -26.0077,-42.8454l-73.998 7.17161c9.3401,35.9998 25.8376,62.5035 49.1666,79.4971 23.3432,16.8377 56.6784,25.3416 99.6655,25.3416 49.0107,0 85.0105,-9.66608 107.843,-28.9982 22.8329,-19.1763 34.3273,-42.8454 34.3273,-70.5114 0,-27.4959 -9.496,-53.4894 -28.6581,-77.9948 -14.5133,-18.34 -47.6784,-46.5021 -99.1695,-84.5003 -27.1699,-19.8282 -46.332,-35.5037 -57.6705,-46.9981l186.504 0 0 -57.9965 -303.008 0z"
   id="glyph146" />
   <glyph
   unicode="¬"
   horiz-adv-x="584"
   d="M528.006 206.999l-83.0121 0 0 214 -388.996 0 0 82.0058 472.008 0 0 -296.006z"
   id="glyph148" />
   <glyph
   unicode=""
   horiz-adv-x="750"
   d="M125.007 0l0 625.007 500 0 0 -625.007 -500 0zm15.9873 16.0015l468.011 0 0 593.004 -468.011 0 0 -593.004z"
   id="glyph150" />
   <glyph
   unicode=""
   horiz-adv-x="750"
   d="M125.007 0l0 625.007 500 0 0 -625.007 -500 0zm15.9873 16.0015l468.011 0 0 593.004 -468.011 0 0 -593.004z"
   id="glyph152" />
   <glyph
   unicode="y"
   horiz-adv-x="500"
   d="M61.9933 -199.501l-9.99206 81.3396c19.3322,-5.1732 35.9998,-7.83775 50.3288,-7.83775 19.6723,0 35.3336,3.33069 46.9981,9.83616 11.8346,6.4913 21.5007,15.6613 28.9982,27.3258 5.51335,8.84404 14.5133,30.6707 26.8439,65.6642 1.65826,4.83304 4.1669,12.0046 7.82357,21.5007l-196.992 520.679 93.9963 0 108.339 -299.677c14.159,-37.8281 26.6597,-77.8247 37.8281,-119.834 10.1621,39.5005 22.1668,78.505 36.1699,116.843l110.664 302.667 87.8309 0 -196.156 -528.006c-21.1747,-56.8343 -37.6722,-95.8388 -49.5068,-117.339 -15.6613,-28.8282 -33.6612,-49.9887 -53.8296,-63.4957 -20.3385,-13.4928 -44.5037,-20.1684 -72.5098,-20.1684 -16.9936,0 -35.9998,3.50077 -56.8343,10.5023z"
   id="glyph154" />
   <glyph
   unicode="h"
   horiz-adv-x="556"
   d="M66.0043 0l0 715.999 88.001 0 0 -257.668c40.8328,47.8343 92.3238,71.6736 154.657,71.6736 38.1683,0 71.3334,-7.49759 99.6655,-22.677 28.1762,-15.1653 48.3446,-35.9998 60.5051,-62.6594 12.1606,-26.6738 18.17,-65.5082 18.17,-116.163l0 -328.505 -88.001 0 0 328.165c0,43.8375 -9.496,75.8405 -28.3321,95.8388 -19.0062,19.9983 -45.6659,29.9904 -80.3334,29.9904 -25.8376,0 -50.1729,-6.66138 -73.0058,-20.1542 -22.8329,-13.507 -39.0045,-31.8329 -48.8265,-55.006 -9.66608,-23.003 -14.4991,-54.8359 -14.4991,-95.4986l0 -283.335 -88.001 0z"
   id="glyph156" />
   <glyph
   unicode="W"
   horiz-adv-x="943"
   d="M200.493 0l-188.489 715.999 98.3332 0 107.333 -469.499c11.6645,-49.1666 21.9967,-97.9931 30.8266,-146.338 18.8361,76.3365 29.8345,120.344 33.0092,132.009l135.325 483.828 114.165 0 102.67 -362.492c25.1715,-89.9994 43.8375,-174.5 55.828,-253.345 9.51018,45.1698 21.6707,97.001 36.51,155.508l111.826 460.329 95.1726 0 -196 -715.999 -92.1679 0 -150.164 545.496c-12.6708,45.6659 -20.3385,73.672 -23.1731,84.0042 -8.16373,-32.6691 -15.4912,-60.661 -21.8266,-83.8341l-150.164 -545.666 -99.0135 0z"
   id="glyph158" />
   <glyph
   unicode="F"
   horiz-adv-x="610"
   d="M82.0058 0l0 715.999 482.992 0 0 -84.0042 -388.004 0 0 -223 336.003 0 0 -83.99 -336.003 0 0 -325.004 -94.9884 0z"
   id="glyph160" />
   <glyph
   unicode="5"
   horiz-adv-x="556"
   d="M41.995 188.007l92.012 6.98736c6.83145,-44.8296 22.6628,-78.4908 47.3241,-101.154 24.6754,-22.5069 54.8359,-33.8455 90.3396,-33.8455 42.8312,0 78.6609,16.0015 107.829,47.8343 28.9982,32.0029 43.4974,74.3381 43.4974,127.005 0,50.1587 -13.833,89.6593 -41.669,118.672 -27.8219,28.9982 -64.6579,43.4974 -110.494,43.4974 -28.5022,0 -53.9997,-6.50547 -76.6625,-19.5022 -22.5069,-12.9968 -40.1667,-29.8345 -53.1776,-50.4989l-82.9979 11.9905 69.009 368.006 354.995 0 0 -84.0042 -284.838 0 -38.1683 -193.166c42.8454,30.1746 87.8451,45.1698 134.843,45.1698 62.3335,0 115.001,-21.6707 157.832,-64.998 42.8312,-43.3273 64.3319,-98.9994 64.3319,-167.002 0,-64.8279 -18.8361,-120.826 -56.5083,-167.994 -45.8218,-58.0107 -108.495,-87.0089 -187.822,-87.0089 -64.998,0 -118.006,18.34 -159.164,54.8359 -41.173,36.4958 -64.672,84.8404 -70.5114,145.175z"
   id="glyph162" />
   <glyph
   unicode="$"
   horiz-adv-x="556"
   d="M248.994 -102.996l0 88.001c-43.8233,5.49918 -79.4971,15.3353 -106.993,29.4943 -27.4959,14.1731 -51.165,37.162 -71.1633,68.6689 -19.9983,31.6628 -31.5069,70.1712 -34.8376,115.837l88.001 16.9936c6.83145,-47.4942 18.8361,-82.3318 36.1699,-104.499 24.6613,-31.3368 54.3256,-48.8265 88.8231,-52.4973l0 276.164c-36.1557,9.3401 -72.9917,24.6613 -110.664,45.8359 -27.9919,15.4912 -49.4926,37.162 -64.6579,64.8279 -15.1653,27.836 -22.677,59.1729 -22.677,94.3364 0,62.5035 22.1668,113.173 66.3445,152.007 29.4943,25.9935 73.4877,41.995 131.654,47.8202l0 42.0092 52.0012 0 0 -42.0092c50.839,-4.83304 91.1758,-19.9983 121.01,-45.1556 38.1683,-32.0029 61.1571,-76.0105 68.9948,-131.839l-89.9994 -14.0031c-5.1732,34.8376 -16.0015,61.6673 -32.499,80.1633 -16.3416,18.6802 -38.8344,30.8408 -67.5067,36.836l0 -253.331c44.1777,-11.3385 73.3318,-20.1684 87.675,-26.3337 27.3258,-12.0046 49.4926,-26.6597 66.6563,-43.9934 17.3337,-17.1778 30.5006,-37.6722 39.8407,-61.5114 9.17002,-23.655 13.833,-49.4926 13.833,-77.1586 0,-60.8311 -19.3322,-111.5 -57.9965,-152.333 -38.6643,-40.6627 -88.6672,-62.3335 -150.009,-65.3382l0 -88.9931 -52.0012 0zm0 769.998c-33.9872,-5.1732 -60.987,-18.8361 -80.4893,-41.173 -19.6723,-22.1668 -29.5085,-48.3304 -29.5085,-78.6609 0,-30.0045 8.33381,-55.1619 25.0014,-75.3302 16.6676,-20.1684 44.9997,-35.5037 84.9963,-45.8359l0 241zm52.0012 -607.999c34.1714,4.1669 62.3335,18.992 84.6703,44.5037 22.1668,25.3274 33.3352,56.8201 33.3352,94.1663 0,31.9888 -7.83775,57.5004 -23.6691,76.9885 -15.8314,19.3322 -47.3383,35.0077 -94.3364,47.1682l0 -262.827z"
   id="glyph164" />
   <glyph
   unicode="þ"
   horiz-adv-x="556"
   d="M66.0043 -199.005l0 915.004 88.001 0 0 -252.494c23.655,25.0014 44.4895,41.669 62.4894,49.8328 23.3432,11.1684 50.0028,16.6676 80.0074,16.6676 44.1635,0 83.168,-11.3385 116.999,-34.1714 33.8313,-22.6628 59.3288,-54.8359 76.6625,-96.1647 17.1637,-41.499 25.8376,-86.8388 25.8376,-136.331 0,-53.1634 -9.496,-100.998 -28.5022,-143.177 -19.0062,-42.321 -46.6721,-74.6641 -82.9979,-97.3269 -36.1699,-22.4928 -74.168,-33.8313 -113.839,-33.8313 -26.9998,0 -52.1572,5.3291 -75.1602,16.0015 -17.6739,8.50388 -37.9982,24.8313 -61.4973,49.1666l0 -253.175 -88.001 0zm79.6672 455.34c0,-66.5004 13.4928,-115.667 40.4927,-147.5 26.9998,-31.8329 59.6689,-47.8343 98.0073,-47.8343 38.9903,0 72.3255,16.4975 100.162,49.4926 27.836,33.0092 41.669,84.0042 41.669,153.169 0,66.0043 -13.507,115.341 -40.6627,148.166 -27.1699,32.8392 -59.6689,49.1666 -97.3411,49.1666 -37.332,0 -70.3271,-17.4897 -99.1695,-52.3272 -28.8282,-35.0077 -43.1572,-85.6625 -43.1572,-152.333z"
   id="glyph166" />
   <glyph
   unicode="í"
   horiz-adv-x="277"
   d="M97.001 0l0 519.006 88.001 0 0 -519.006 -88.001 0zm-28.9982 582.998l63.9917 136.998 116.007 0 -107.007 -136.998 -72.9917 0z"
   id="glyph168" />
   <glyph
   unicode="Ü"
   horiz-adv-x="722"
   d="M546.006 715.999l94.9884 0 0 -413.501c0,-71.9995 -8.16373,-129.16 -24.3211,-171.495 -16.3416,-42.1651 -45.68,-76.6625 -88.001,-103.166 -42.5052,-26.5038 -98.0073,-39.8407 -167.002,-39.8407 -66.8405,0 -121.676,11.5086 -164.167,34.6675 -42.6753,23.1731 -73.0058,56.5083 -91.1758,100.332 -18.1558,43.8375 -27.3258,103.677 -27.3258,179.503l0 413.501 95.0026 0 0 -413.331c0,-62.1634 5.82516,-108.169 17.3337,-137.508 11.4944,-29.4943 31.1667,-52.3272 59.3288,-68.1586 28.0061,-16.0015 62.3335,-23.9951 102.84,-23.9951 69.3208,0 118.828,15.8314 148.322,47.3241 29.5085,31.677 44.1777,92.338 44.1777,182.337l0 413.331zm-324.012 44.0076l0 99.9915 92.012 0 0 -99.9915 -92.012 0zm182.011 0l0 99.9915 91.9978 0 0 -99.9915 -91.9978 0z"
   id="glyph170" />
   <glyph
   unicode="Ë"
   horiz-adv-x="667"
   d="M79.0011 0l0 715.999 516.994 0 0 -84.0042 -421.991 0 0 -219.995 394.991 0 0 -84.0042 -394.991 0 0 -243.991 438.999 0 0 -84.0042 -534.001 0zm134.999 760.006l0 99.9915 91.9978 0 0 -99.9915 -91.9978 0zm181.997 0l0 99.9915 91.9978 0 0 -99.9915 -91.9978 0z"
   id="glyph172" />
   <glyph
   unicode="º"
   horiz-adv-x="365"
   d="M182.493 728.003c47.3383,0 85.8467,-16.3416 115.667,-48.8406 29.8345,-32.6691 44.8438,-77.4987 44.8438,-134.829 0,-57.1603 -15.0094,-101.834 -44.9997,-134.503 -30.0045,-32.499 -68.3429,-48.8265 -115.001,-48.8265 -47.3383,0 -86.0026,16.0015 -116.007,47.8343 -29.9904,31.9888 -44.9997,76.4924 -44.9997,133.497 0,58.6626 15.0094,104.158 44.8296,136.827 29.8345,32.499 68.3429,48.8406 115.667,48.8406zm0 -64.0059c-26.4896,0 -47.9902,-9.32593 -64.1618,-27.9919 -16.1716,-18.666 -24.3353,-49.1666 -24.3353,-91.5018 0,-41.343 8.33381,-71.5035 24.8313,-90.6656 16.5117,-19.1763 37.8423,-28.8423 63.6657,-28.8423 26.1778,0 47.5084,9.66608 63.8358,28.8423 16.4975,19.1621 24.6754,50.1587 24.6754,93.16 0,39.9966 -8.33381,69.5051 -24.8313,88.4971 -16.5117,19.0062 -37.8423,28.5022 -63.6799,28.5022z"
   id="glyph174" />
   <glyph
   unicode="©"
   horiz-adv-x="736"
   d="M369.834 728.003c61.8374,0 122.172,-15.8314 181.161,-47.6643 58.8327,-31.677 104.839,-77.1727 137.678,-136.176 32.825,-59.1587 49.3225,-120.826 49.3225,-184.832 0,-63.4957 -16.1574,-124.667 -48.6564,-183.159 -32.3431,-58.6768 -77.6688,-104.173 -136.176,-136.502 -58.4925,-32.499 -119.664,-48.6706 -183.33,-48.6706 -63.8358,0 -125.007,16.1716 -183.5,48.6706 -58.5067,32.3289 -104.002,77.8247 -136.502,136.502 -32.499,58.4925 -48.8265,119.664 -48.8265,183.159 0,64.0059 16.4975,125.673 49.4926,184.832 33.1651,59.0028 79.1712,104.499 138.004,136.176 59.0028,31.8329 119.324,47.6643 181.331,47.6643zm0 -61.0012c-51.8312,0 -102.33,-13.3369 -151.341,-39.8407 -48.9965,-26.4896 -87.3207,-64.4878 -114.987,-113.824 -27.6801,-49.3367 -41.5131,-100.672 -41.5131,-154.005 0,-53.1634 13.6771,-104.002 40.847,-152.659 27.1557,-48.6706 65.1539,-86.6687 113.995,-113.839 48.8265,-27.1699 99.8356,-40.8328 152.999,-40.8328 52.9934,0 104.002,13.6629 152.829,40.8328 48.8406,27.1699 86.8388,65.1681 113.839,113.839 26.9998,48.6564 40.4927,99.4954 40.4927,152.659 0,53.3335 -13.833,104.669 -41.3289,154.005 -27.4959,49.3367 -65.8342,87.3349 -115.001,113.824 -49.1666,26.5038 -99.4954,39.8407 -150.831,39.8407zm118.161 -366.999l60.0091 -17.9999c-9.83616,-40.6627 -30.5006,-73.3318 -62.1776,-97.497 -31.8329,-24.3353 -70.3271,-36.51 -115.497,-36.51 -57.3303,0 -103.832,18.5101 -139.662,55.6721 -35.8297,37.162 -53.6737,88.4971 -53.6737,154.331 0,43.0013 8.1779,80.3334 24.5054,111.996 16.1716,31.8329 39.5005,55.6721 69.5051,71.8436 30.1604,16.1574 64.6579,24.1652 103.322,24.1652 43.3415,0 79.3412,-10.3322 108.013,-31.1667 28.6581,-20.8345 48.1603,-49.1666 58.6626,-84.8404l-57.9965 -14.9952c-9.83616,24.4912 -24.1794,43.3273 -43.3415,56.3382 -19.1621,13.1668 -41.499,19.6581 -67.3366,19.6581 -37.488,0 -68.4988,-13.3369 -92.8341,-39.9966 -24.3211,-26.6738 -36.4958,-64.998 -36.4958,-114.675 0,-49.8328 11.5086,-87.4908 34.4974,-112.988 23.003,-25.5117 52.6674,-38.3383 89.1774,-38.3383 29.3242,0 55.1619,8.50388 77.3286,25.6676 22.1668,16.9936 36.836,40.1667 43.9934,69.335z"
   id="glyph176" />
   <glyph
   unicode=""
   horiz-adv-x="750"
   d="M125.007 0l0 625.007 500 0 0 -625.007 -500 0zm15.9873 16.0015l468.011 0 0 593.004 -468.011 0 0 -593.004z"
   id="glyph178" />
   <glyph
   unicode=""
   horiz-adv-x="750"
   d="M125.007 0l0 625.007 500 0 0 -625.007 -500 0zm15.9873 16.0015l468.011 0 0 593.004 -468.011 0 0 -593.004z"
   id="glyph180" />
   <glyph
   unicode="v"
   horiz-adv-x="500"
   d="M207.835 0l-195.83 519.006 94.1663 0 110.99 -310.845c12.0046,-33.4911 23.1731,-68.3287 33.3352,-104.499 7.83775,27.34 18.666,60.165 32.8392,98.6734l115.327 316.67 90.3396 0 -196.496 -519.006 -84.6703 0z"
   id="glyph182" />
   <glyph
   unicode="e"
   horiz-adv-x="556"
   d="M420.007 167.994l90.9916 -11.9905c-14.159,-52.8375 -40.6627,-94.0104 -79.3271,-123.165 -38.6643,-29.1683 -88.001,-43.8375 -148.166,-43.8375 -75.6704,0 -135.665,23.329 -179.999,70.0011 -44.3336,46.5021 -66.5004,111.996 -66.5004,196.17 0,86.9947 22.3227,154.657 67.1665,202.662 44.8296,48.1603 102.996,72.1696 174.5,72.1696 69.1649,0 125.659,-23.4991 169.497,-70.6673 43.8375,-47.1682 65.8342,-113.498 65.8342,-199.005 0,-5.15902 -0.170078,-12.9968 -0.49606,-23.329l-386.502 0c3.33069,-56.8343 19.3322,-100.502 48.3304,-130.676 28.8282,-30.1604 64.998,-45.3257 108.169,-45.3257 32.1589,0 59.6547,8.50388 82.3318,25.4975 22.8329,17.0078 40.8328,44.1635 54.1697,81.4955zm-288.012 141.009l289.004 0c-3.82675,43.6674 -14.9952,76.3365 -33.1651,98.1632 -27.836,33.8313 -64.1618,50.839 -108.665,50.839 -40.3368,0 -74.168,-13.507 -101.664,-40.5068 -27.34,-26.9998 -42.5052,-63.1697 -45.5099,-108.495z"
   id="glyph184" />
   <glyph
   unicode="T"
   horiz-adv-x="610"
   d="M259 0l0 631.994 -235.997 0 0 84.0042 566.996 0 0 -84.0042 -235.997 0 0 -631.994 -95.0026 0z"
   id="glyph186" />
   <glyph
   unicode="C"
   horiz-adv-x="722"
   d="M586.995 251.162l95.0026 -23.9951c-19.8282,-77.8389 -55.502,-136.998 -106.993,-177.83 -51.5052,-40.8328 -114.505,-61.3413 -188.999,-61.3413 -77.0027,0 -139.676,15.6755 -188.007,47.1682 -48.3304,31.3368 -84.9963,76.8326 -110.168,136.331 -25.1573,59.6689 -37.8281,123.505 -37.8281,191.833 0,74.5082 14.159,139.506 42.6611,195.008 28.5022,55.502 69.009,97.6671 121.506,126.495 52.4973,28.8282 110.324,43.1714 173.323,43.1714 71.6736,0 131.839,-18.17 180.509,-54.6658 48.8265,-36.51 82.8278,-87.675 102.004,-153.665l-93.0041 -22.0109c-16.4975,52.0012 -40.6627,89.9994 -72.1696,113.669 -31.4927,23.8392 -71.1633,35.6738 -118.998,35.6738 -54.8359,0 -100.842,-13.1668 -137.664,-39.5005 -36.836,-26.3337 -62.8437,-61.8374 -77.6688,-106.171 -15.0094,-44.5037 -22.5069,-90.3254 -22.5069,-137.494 0,-60.8453 8.84404,-114.009 26.5038,-159.334 17.6739,-45.5099 45.1698,-79.3412 82.5018,-101.834 37.332,-22.5069 77.6688,-33.6754 121.166,-33.6754 52.9934,0 97.6671,15.3353 134.333,45.8359 36.6659,30.6707 61.4973,75.9964 74.494,136.331z"
   id="glyph188" />
   <glyph
   unicode="2"
   horiz-adv-x="556"
   d="M503.005 84.0042l0 -84.0042 -474.006 0c-0.666138,21.1605 2.83463,41.499 10.3322,61.1713 12.1747,32.1589 31.6628,63.9917 58.5067,95.1585 26.8298,31.1667 65.1681,67.1665 115.001,107.999 77.4987,63.8358 130.166,114.335 157.662,151.667 27.666,37.332 41.499,72.6657 41.499,106.001 0,34.8376 -12.5007,64.176 -37.5021,88.1711 -25.0014,23.8392 -57.6705,35.8297 -97.8372,35.8297 -42.4911,0 -76.4924,-12.6708 -101.99,-37.9982 -25.4975,-25.1715 -38.3383,-60.165 -38.6643,-104.995l-89.9994 8.99994c6.16532,67.3224 29.4943,118.658 69.8311,153.991 40.4927,35.3336 94.6624,53.0075 162.835,53.0075 68.6547,0 123.165,-19.0062 163.161,-57.1744 40.1667,-38.1683 60.165,-85.4924 60.165,-141.831 0,-28.6581 -5.82516,-56.8343 -17.6597,-84.5003 -11.6787,-27.836 -31.1667,-57.0044 -58.3366,-87.6609 -27.34,-30.5006 -72.4956,-72.6657 -135.495,-125.999 -52.8375,-44.3336 -86.8388,-74.3381 -101.834,-90.1695 -15.0094,-15.8314 -27.34,-31.6628 -37.1761,-47.6643l351.508 0z"
   id="glyph190" />
   <glyph
   unicode="!"
   horiz-adv-x="277"
   d="M113.002 178l-26.9998 379.33 0 158.668 108.991 0 0 -158.668 -24.9872 -379.33 -57.0044 0zm-23.003 -178l0 100.006 100.998 0 0 -100.006 -100.998 0z"
   id="glyph192" />
   <glyph
   unicode="û"
   horiz-adv-x="556"
   d="M404.997 0l0 77.1727c-40.3368,-58.8327 -95.0026,-88.1711 -164.167,-88.1711 -30.5006,0 -59.0028,5.82516 -85.4924,17.5038 -26.5038,11.8346 -46.1761,26.4896 -59.0028,44.1635 -12.8409,17.8298 -21.8408,39.5005 -26.9998,65.1681 -3.50077,17.3337 -5.3291,44.6596 -5.3291,81.9916l0 321.178 88.001 0 0 -287.176c0,-45.8359 1.82833,-76.8326 5.3291,-92.664 5.49918,-23.1731 17.1637,-41.173 35.1636,-54.3256 17.8298,-13.1668 39.8407,-19.8424 66.1602,-19.8424 26.3337,0 51.0091,6.67555 74.0121,20.1684 22.9888,13.507 39.3305,32.0029 48.9965,55.1619 9.496,23.1731 14.329,57.0044 14.329,101.168l0 277.51 88.001 0 0 -519.006 -79.0011 0zm-129.004 665.996l-54.4957 -82.9979 -99.9915 0 104.499 136.998 92.99 0 111.5 -136.998 -99.9915 0 -54.5099 82.9979z"
   id="glyph194" />
   <glyph
   unicode="ê"
   horiz-adv-x="556"
   d="M420.007 167.994l90.9916 -11.9905c-14.159,-52.8375 -40.6627,-94.0104 -79.3271,-123.165 -38.6643,-29.1683 -88.001,-43.8375 -148.166,-43.8375 -75.6704,0 -135.665,23.329 -179.999,70.0011 -44.3336,46.5021 -66.5004,111.996 -66.5004,196.17 0,86.9947 22.3227,154.657 67.1665,202.662 44.8296,48.1603 102.996,72.1696 174.5,72.1696 69.1649,0 125.659,-23.4991 169.497,-70.6673 43.8375,-47.1682 65.8342,-113.498 65.8342,-199.005 0,-5.15902 -0.170078,-12.9968 -0.49606,-23.329l-386.502 0c3.33069,-56.8343 19.3322,-100.502 48.3304,-130.676 28.8282,-30.1604 64.998,-45.3257 108.169,-45.3257 32.1589,0 59.6547,8.50388 82.3318,25.4975 22.8329,17.0078 40.8328,44.1635 54.1697,81.4955zm-288.012 141.009l289.004 0c-3.82675,43.6674 -14.9952,76.3365 -33.1651,98.1632 -27.836,33.8313 -64.1618,50.839 -108.665,50.839 -40.3368,0 -74.168,-13.507 -101.664,-40.5068 -27.34,-26.9998 -42.5052,-63.1697 -45.5099,-108.495zm145.005 356.993l-54.4957 -82.9979 -100.006 0 104.499 136.998 93.0041 0 111.5 -136.998 -100.006 0 -54.4957 82.9979z"
   id="glyph196" />
   <glyph
   unicode="Ù"
   horiz-adv-x="722"
   d="M546.006 715.999l94.9884 0 0 -413.501c0,-71.9995 -8.16373,-129.16 -24.3211,-171.495 -16.3416,-42.1651 -45.68,-76.6625 -88.001,-103.166 -42.5052,-26.5038 -98.0073,-39.8407 -167.002,-39.8407 -66.8405,0 -121.676,11.5086 -164.167,34.6675 -42.6753,23.1731 -73.0058,56.5083 -91.1758,100.332 -18.1558,43.8375 -27.3258,103.677 -27.3258,179.503l0 413.501 95.0026 0 0 -413.331c0,-62.1634 5.82516,-108.169 17.3337,-137.508 11.4944,-29.4943 31.1667,-52.3272 59.3288,-68.1586 28.0061,-16.0015 62.3335,-23.9951 102.84,-23.9951 69.3208,0 118.828,15.8314 148.322,47.3241 29.5085,31.677 44.1777,92.338 44.1777,182.337l0 413.331zm-122.002 44.0076l-71.0074 0 -113.002 136.998 118.006 0 66.0043 -136.998z"
   id="glyph198" />
   <glyph
   unicode="È"
   horiz-adv-x="667"
   d="M79.0011 0l0 715.999 516.994 0 0 -84.0042 -421.991 0 0 -219.995 394.991 0 0 -84.0042 -394.991 0 0 -243.991 438.999 0 0 -84.0042 -534.001 0zm336.003 760.006l-71.0074 0 -113.002 136.998 118.006 0 66.0043 -136.998z"
   id="glyph200" />
   <glyph
   unicode="·"
   horiz-adv-x="332"
   d="M115.993 311.001l0 100.006 100.006 0 0 -100.006 -100.006 0z"
   id="glyph202" />
   <glyph
   unicode="¦"
   horiz-adv-x="259"
   d="M169.001 728.003l0 -384.999 -77.0027 0 0 384.999 77.0027 0zm0 -552.001l0 -386.005 -77.0027 0 0 386.005 77.0027 0z"
   id="glyph204" />
   <glyph
   unicode=""
   horiz-adv-x="750"
   d="M125.007 0l0 625.007 500 0 0 -625.007 -500 0zm15.9873 16.0015l468.011 0 0 593.004 -468.011 0 0 -593.004z"
   id="glyph206" />
   <glyph
   unicode=""
   horiz-adv-x="750"
   d="M125.007 0l0 625.007 500 0 0 -625.007 -500 0zm15.9873 16.0015l468.011 0 0 593.004 -468.011 0 0 -593.004z"
   id="glyph208" />
   <glyph
   unicode="s"
   horiz-adv-x="500"
   d="M30.9967 154.997l87.0089 14.0031c4.83304,-34.8376 18.4959,-61.4973 40.8328,-80.1633 22.3227,-18.5101 53.6595,-27.836 93.6561,-27.836 40.5068,0 70.5114,8.16373 90.1695,24.6613 19.5022,16.3416 29.3384,35.6738 29.3384,57.8406 0,19.8282 -8.82987,35.5037 -26.3337,46.8281 -12.3306,7.83775 -42.3352,17.6739 -89.9994,29.8345 -64.3319,16.1716 -108.836,30.1746 -133.837,41.995 -24.8313,12.0046 -43.6674,28.3463 -56.4941,49.3367 -12.8409,20.8345 -19.3322,44.0076 -19.3322,69.335 0,23.1731 5.3291,44.5037 15.8314,64.1618 10.6582,19.6723 25.0014,35.9998 43.1572,49.0107 13.6771,9.99206 32.3431,18.4959 55.8422,25.4975 23.6691,7.00153 48.8265,10.5023 75.8263,10.5023 40.6769,0 76.3365,-5.83933 107.007,-17.6739 30.8266,-11.6645 53.4894,-27.666 68.1586,-47.6643 14.4991,-20.1684 24.6754,-46.9981 30.1746,-80.6593l-86.0026 -12.0046c-3.84092,26.9998 -15.1653,48.1603 -33.8313,63.3256 -18.666,15.1653 -44.9997,22.677 -79.1712,22.677 -40.1667,0 -68.9948,-6.67555 -86.1585,-19.9983 -17.1778,-13.3369 -25.8376,-29.0124 -25.8376,-46.8422 0,-11.3243 3.50077,-21.6707 10.6582,-30.8266 7.17161,-9.3401 18.34,-17.1778 33.6754,-23.3432 8.82987,-3.33069 34.4974,-10.8283 77.4987,-22.4928 61.9933,-16.4975 105.335,-30.1746 129.996,-40.6627 24.6754,-10.5023 44.0076,-26.0077 57.9965,-46.006 14.1731,-20.1684 21.1747,-45.1698 21.1747,-75.1602 0,-29.1683 -8.50388,-56.6784 -25.6676,-82.5018 -17.1637,-25.8376 -41.8391,-45.8359 -73.998,-60.0091 -32.3431,-14.159 -68.8389,-21.1605 -109.502,-21.1605 -67.3366,0 -118.828,14.0031 -154.161,41.8249 -35.3336,28.0061 -57.8406,69.335 -67.6767,124.171z"
   id="glyph210" />
   <glyph
   unicode="b"
   horiz-adv-x="556"
   d="M147.004 0l-82.0058 0 0 715.999 88.001 0 0 -255.499c37.162,46.332 84.5003,69.5051 142.171,69.5051 31.8329,0 62.1634,-6.33539 90.6656,-19.1763 28.5022,-12.8267 51.8312,-30.9967 70.3271,-54.1556 18.34,-23.3432 32.8392,-51.3351 43.1714,-84.1743 10.5023,-32.6691 15.6613,-67.8326 15.6613,-105.165 0,-88.6672 -21.9967,-157.336 -65.8342,-205.666 -43.9934,-48.5005 -96.6608,-72.6657 -158.158,-72.6657 -61.1713,0 -109.176,25.4975 -143.999,76.3365l0 -65.3382zm-1.00629 263.337c0,-62.0075 8.50388,-106.837 25.3416,-134.503 27.666,-45.1698 64.998,-67.8326 112.166,-67.8326 38.4942,0 71.6594,16.6676 99.4954,50.0028 28.0061,33.3352 41.995,82.9979 41.995,149.002 0,67.6626 -13.3228,117.495 -40.1667,149.654 -26.8298,32.173 -59.3288,48.3446 -97.3269,48.3446 -38.5084,0 -71.6736,-16.6676 -99.4954,-50.0028 -28.0061,-33.3352 -42.0092,-81.4955 -42.0092,-144.665z"
   id="glyph212" />
   <glyph
   unicode="Q"
   horiz-adv-x="777"
   d="M618.828 76.8326c44.1777,-30.3305 84.8404,-52.3272 122.172,-66.3303l-28.162 -66.0043c-51.5052,18.4959 -102.84,47.6643 -154.005,87.675 -52.9934,-29.5085 -111.5,-44.1777 -175.506,-44.1777 -64.6579,0 -123.32,15.6755 -175.988,46.8422 -52.6674,31.1667 -93.1742,75.1602 -121.676,131.668 -28.5022,56.6642 -42.6611,120.33 -42.6611,191.323 0,70.4972 14.329,134.673 43.0013,192.67 28.5022,57.8406 69.335,101.834 122.158,132.165 52.8375,30.1746 112.01,45.3399 177.334,45.3399 66.0043,0 125.503,-15.6755 178.511,-46.9981 52.9934,-31.5069 93.5002,-75.3444 121.322,-131.839 27.836,-56.3382 41.669,-120.004 41.669,-190.827 0,-59.0028 -8.99994,-111.84 -26.9998,-158.838 -17.8298,-46.9981 -44.9997,-87.8309 -81.1696,-122.669zm-207.991 120.996c54.4957,-15.3353 99.4954,-38.1683 134.829,-68.3287 55.502,50.669 83.3381,126.835 83.3381,228.499 0,57.8406 -9.83616,108.339 -29.5085,151.497 -19.6581,43.3415 -48.3304,76.8326 -86.1585,100.672 -37.8423,23.8392 -80.3334,35.8297 -127.331,35.8297 -70.5114,0 -129.004,-24.1652 -175.336,-72.3255 -46.5021,-48.3446 -69.6752,-120.344 -69.6752,-216.169 0,-92.8341 23.003,-164.167 68.8389,-214 46.006,-49.6627 104.669,-74.5082 176.172,-74.5082 33.6612,0 65.4941,6.33539 95.4986,19.0062 -29.6644,19.1621 -60.8311,32.8392 -93.5002,41.0029l22.8329 68.8248z"
   id="glyph214" />
   <glyph
   unicode="@"
   horiz-adv-x="1015"
   d="M568.995 80.1633c-21.1605,-24.4912 -44.8296,-44.1635 -71.1633,-59.0028 -26.1636,-14.8251 -52.4973,-22.1668 -78.831,-22.1668 -28.9982,0 -57.1603,8.50388 -84.6703,25.3416 -27.3258,16.9936 -49.4926,43.0013 -66.6704,78.1649 -17.1637,35.1636 -25.6534,73.8279 -25.6534,115.837 0,51.8312 13.3228,103.662 39.8265,155.664 26.5038,51.8312 59.4988,90.8356 98.8293,116.999 39.3446,25.9935 77.6688,39.0045 114.675,39.0045 28.3321,0 55.3319,-7.34169 81.1696,-22.1668 25.6534,-14.8393 47.8202,-37.5021 66.3303,-67.6767l17.1637 75.8405 86.9947 0 -70.3271 -327.995c-9.83616,-45.68 -14.6692,-70.8373 -14.6692,-75.6704 0,-8.82987 3.33069,-16.4975 10.0062,-22.8329 6.66138,-6.33539 14.8251,-9.51018 24.1652,-9.51018 17.3337,0 39.9966,9.83616 68.0027,29.6786 37.162,25.9935 66.6563,60.8311 88.327,104.669 21.6707,43.6533 32.499,88.653 32.499,135.155 0,54.3398 -14.0031,105.009 -41.8391,152.007 -27.8219,47.1682 -69.4909,84.8262 -124.823,113.158 -55.176,28.1762 -116.333,42.3352 -183.174,42.3352 -76.3365,0 -146.168,-17.8298 -209.167,-53.3335 -63.1697,-35.6596 -112.166,-86.6687 -146.834,-153.169 -34.8234,-66.4862 -52.1572,-137.82 -52.1572,-214 0,-79.653 17.3337,-148.166 52.0012,-205.666 34.8234,-57.6563 84.9963,-100.162 150.66,-127.657 65.6642,-27.4959 138.33,-41.173 218.167,-41.173 85.4924,0 156.996,14.3432 214.666,43.1714 57.6705,28.6723 100.828,63.6657 129.5,104.839l88.001 0c-16.6676,-34.1714 -45.1698,-69.1791 -85.5065,-104.669 -40.3226,-35.5037 -88.327,-63.6657 -143.999,-84.3444 -55.6579,-20.6644 -122.824,-30.9967 -201.159,-30.9967 -72.3397,0 -139.01,9.3401 -199.997,27.836 -61.1713,18.4959 -113.173,46.332 -156.174,83.494 -43.0013,37.3462 -75.3302,80.1774 -97.171,128.508 -27.3258,61.4973 -40.9887,127.828 -40.9887,199.005 0,79.157 16.3275,154.827 48.8265,226.657 39.8407,88.001 96.3348,155.508 169.497,202.336 73.1759,46.8281 161.843,70.1712 266.172,70.1712 80.8294,0 153.495,-16.4975 217.827,-49.5068 64.3461,-32.9951 115.171,-82.1617 152.177,-147.5 31.6628,-56.1682 47.4942,-117.325 47.4942,-183.33 0,-94.3364 -33.1651,-178 -99.4954,-251.162 -59.3429,-65.6783 -124.001,-98.5033 -194.342,-98.5033 -22.4928,0 -40.4927,3.50077 -54.3256,10.3322 -13.833,6.83145 -23.9951,16.6676 -30.5006,29.4943 -4.33698,8.1779 -7.34169,22.3369 -9.3401,42.3352zm-236.989 132.009c0,-44.6737 10.6582,-79.3412 31.8329,-104.002 21.1605,-24.8313 45.3257,-37.1761 72.8216,-37.1761 18.17,0 37.3462,5.51335 57.6705,16.3416 20.1684,10.9984 39.5005,27.1699 57.8406,48.6706 18.4959,21.5007 33.4911,48.8265 45.1556,81.8215 11.8346,33.0092 17.6739,66.1744 17.6739,99.5096 0,44.1635 -10.9984,78.6609 -32.9951,102.996 -22.0109,24.5054 -48.8406,36.6659 -80.3334,36.6659 -20.8345,0 -40.5068,-5.3291 -59.0028,-15.8314 -18.34,-10.6724 -36.1699,-27.666 -53.5036,-51.165 -17.1637,-23.329 -31.1667,-51.8312 -41.499,-85.5065 -10.5023,-33.4911 -15.6613,-64.3319 -15.6613,-92.3238z"
   id="glyph216" />
   <glyph
   unicode="/"
   horiz-adv-x="277"
   d="M0 -12.0046l208.005 740.008 70.8232 0 -207.991 -740.008 -70.8373 0z"
   id="glyph218" />
   <glyph
   unicode="ø"
   horiz-adv-x="610"
   d="M449.005 487.173l48.3304 62.6594 46.8281 -34.0014 -52.0012 -67.3366c20.3385,-27.9919 34.3415,-53.3335 41.8391,-75.9964 9.99206,-32.499 14.9952,-70.3271 14.9952,-113.498 0,-97.497 -27.4959,-169.171 -82.6577,-215.007 -44.6737,-36.6659 -98.5033,-54.9918 -161.333,-54.9918 -52.0012,0 -97.6671,12.9968 -137.508,39.0045l-50.995 -66.0043 -46.006 34.8376 52.6674 68.3287c-19.1621,21.9967 -32.6691,44.1635 -40.8328,66.3303 -12.8267,35.3336 -19.3322,75.5003 -19.3322,120.5 0,97.8372 23.9951,168.675 71.8295,212.342 47.8343,43.8233 104.002,65.6642 168.504,65.6642 26.6597,0 51.3351,-3.50077 73.8279,-10.3322 22.5069,-6.84563 46.332,-17.6739 71.8436,-32.499zm-49.5068 -64.0059c-29.6644,22.4928 -60.8311,33.8313 -93.3301,33.8313 -43.3415,0 -79.8373,-16.4975 -109.162,-49.6627 -29.3384,-33.1651 -44.0076,-82.6719 -44.0076,-148.166 0,-48.8406 8.50388,-89.6735 25.3274,-122.498l221.172 286.496zm36.4958 -47.1682l-219.655 -284.497c25.4975,-20.3385 54.1556,-30.5006 86.1585,-30.5006 45.3399,0 82.6719,16.4975 112.166,49.6627 29.5085,33.1651 44.3336,82.9979 44.3336,149.342 0,24.6613 -1.99841,46.1619 -5.82516,64.8279 -2.67872,13.4928 -8.33381,30.6707 -17.1778,51.165z"
   id="glyph220" />
   <glyph
   unicode="ç"
   horiz-adv-x="500"
   d="M404.997 190.005l86.0026 -12.0046c-9.496,-59.1729 -33.5053,-105.335 -72.3397,-138.84 -38.8202,-33.4911 -86.6546,-50.1587 -143.163,-50.1587 -70.8373,0 -127.828,23.1589 -170.829,69.5051 -43.1714,46.332 -64.672,112.662 -64.672,198.991 0,55.9981 9.3401,104.839 27.836,146.834 18.4959,41.8391 46.6721,73.3318 84.6703,94.1663 37.8281,21.0046 79.0011,31.5069 123.661,31.5069 56.1682,0 102.33,-14.1731 138.004,-42.6753 35.8297,-28.5022 58.8327,-68.9948 68.8389,-121.336l-85.0105 -12.9968c-8.16373,34.8376 -22.4928,61.0012 -43.3273,78.6751 -20.6644,17.4897 -45.6659,26.3337 -75.0043,26.3337 -44.3336,0 -80.3334,-15.8314 -108.169,-47.5084 -27.666,-31.8329 -41.499,-81.8357 -41.499,-150.49 0,-69.6752 13.3369,-120.174 40.0108,-151.667 26.8298,-31.5069 61.6532,-47.3383 104.499,-47.3383 34.6675,0 63.4957,10.5023 86.4987,31.6628 23.1589,21.0046 37.8281,53.5036 43.9934,97.3411zm-205.326 -276.008l25.3274 86.0026 64.998 0 -16.1574 -52.0012c27.8219,-3.33069 48.8265,-11.8346 62.9996,-25.6676 14.159,-13.6629 21.1605,-28.9982 21.1605,-45.8359 0,-24.3353 -11.8346,-45.8218 -35.5037,-64.502 -23.4991,-18.666 -59.1587,-27.9919 -106.667,-27.9919 -26.8298,0 -50.4989,0 -70.8232,0l4.98894 61.9933c21.1747,-0.666138 36.51,-0.99212 46.5021,-0.99212 30.8408,0 52.6674,4.1669 65.1681,12.6708 9.496,6.4913 14.329,14.329 14.329,23.825 0,5.83933 -1.82833,10.9984 -5.65508,15.5054 -3.67084,4.49289 -10.5023,8.48971 -20.5085,11.6645 -10.1621,3.16061 -26.8298,5.00312 -50.1587,5.3291z"
   id="glyph222" />
   <glyph
   unicode="Ö"
   horiz-adv-x="777"
   d="M48.0044 348.503c0,118.658 31.9888,211.662 95.8246,278.828 63.8358,67.1665 146.168,100.672 247.165,100.672 66.1744,0 125.673,-15.8314 178.837,-47.3383 53.0075,-31.4927 93.5002,-75.5003 121.336,-131.994 27.836,-56.3382 41.8391,-120.344 41.8391,-191.833 0,-72.5098 -14.6692,-137.508 -44.0076,-194.668 -29.3384,-57.3303 -70.8373,-100.672 -124.497,-129.996 -53.8296,-29.5085 -111.84,-44.1777 -174.004,-44.1777 -67.4925,0 -127.672,16.3416 -180.835,48.8406 -52.9934,32.499 -93.3301,76.8326 -120.67,133.171 -27.3258,56.154 -40.9887,115.653 -40.9887,178.497zm97.9931 -1.67243c0,-86.1585 23.1731,-153.991 69.5051,-203.498 46.332,-49.4926 104.499,-74.3381 174.5,-74.3381 71.3334,0 129.826,25.0014 176.002,75.0043 45.9918,50.0028 68.9948,120.996 68.9948,212.994 0,58.1666 -9.83616,109.006 -29.4943,152.347 -19.6723,43.3273 -48.5005,76.9885 -86.3428,100.828 -37.9982,23.8392 -80.4893,35.8297 -127.657,35.8297 -67.0106,0 -124.667,-23.003 -173.012,-68.9948 -48.3304,-46.006 -72.4956,-122.669 -72.4956,-230.172zm111.996 413.175l0 99.9915 92.012 0 0 -99.9915 -92.012 0zm182.011 0l0 99.9915 91.9978 0 0 -99.9915 -91.9978 0z"
   id="glyph224" />
   <glyph
   unicode="Å"
   horiz-adv-x="667"
   d="M-1.50235 0l274.675 715.999 104.158 0 291.499 -715.999 -107.829 0 -82.8278 217.005 -301.505 0 -77.6688 -217.005 -100.502 0zm206.007 293.993l243.991 0 -74.6641 198.509c-22.4928,60.3351 -39.5005,110.168 -51.3351,149.498 -9.82199,-46.6721 -22.9888,-92.4939 -39.5005,-137.834l-78.4908 -210.173zm30.5006 476.501c0,23.8392 8.65979,44.3336 25.9935,61.6673 17.3337,17.1778 37.8281,25.8376 61.4973,25.8376 24.0093,0 44.5037,-8.65979 61.6673,-26.1636 17.1637,-17.5038 25.8376,-38.5084 25.8376,-63.3398 0,-25.1573 -8.67396,-46.332 -25.8376,-63.4957 -17.1637,-17.3337 -37.5021,-25.9935 -61.1571,-25.9935 -24.3353,0 -44.9997,8.65979 -62.1776,26.1636 -17.1637,17.4897 -25.8235,39.1604 -25.8235,65.324zm36.9919 -0.49606c0,-15.3353 5.1732,-27.9919 15.3353,-38.4942 10.1621,-10.3322 22.1668,-15.5054 36.1699,-15.5054 14.0031,0 25.9935,5.1732 36.1699,15.5054 10.1621,10.5023 15.3353,23.003 15.3353,37.5021 0,14.655 -5.00312,26.9998 -15.0094,37.488 -10.1621,10.3322 -22.1668,15.5054 -36.4958,15.5054 -14.0031,0 -26.0077,-5.1732 -36.1699,-15.3353 -10.1621,-10.1621 -15.3353,-22.4928 -15.3353,-36.6659z"
   id="glyph226" />
   <glyph
   unicode="´"
   horiz-adv-x="332"
   d="M107.999 582.998l64.0059 136.998 115.993 0 -106.993 -136.998 -73.0058 0z"
   id="glyph228" />
   <glyph
   unicode="£"
   horiz-adv-x="556"
   d="M192.67 395.005l153.325 0 0 -71.9995 -138.16 0c6.16532,-14.1731 9.17002,-28.3321 9.17002,-42.6753 0,-27.9919 -6.83145,-57.8264 -20.3385,-88.9931 -13.4928,-31.3368 -35.6596,-63.3398 -66.6704,-96.0088 25.8376,7.17161 49.1666,10.6724 70.3413,10.6724 26.9998,0 57.5004,-4.1669 91.3317,-12.5007 55.9981,-13.6629 93.8262,-20.4944 113.669,-20.4944 23.9951,0 55.3319,9.32593 93.6561,27.9919l29.0124 -80.9995c-30.0045,-12.8267 -53.3335,-21.1605 -69.6752,-25.1715 -16.4975,-3.82675 -32.9951,-5.82516 -49.1666,-5.82516 -13.833,0 -27.666,1.33228 -41.669,3.82675 -8.82987,1.67243 -29.9904,7.66767 -63.3256,17.9999 -33.5053,10.1763 -55.176,16.3416 -64.8421,18.34 -15.3212,2.49447 -30.6565,3.82675 -45.9918,3.82675 -23.4991,0 -48.5005,-4.1669 -75.1743,-12.6566 -26.6597,-8.33381 -50.8249,-19.8424 -72.6657,-34.3415l-33.4911 84.0042c31.4927,17.3337 58.1666,42.1651 80.1633,74.3381 21.8266,32.1589 32.8392,71.4893 32.8392,117.821 0,20.0125 -2.83463,40.1667 -8.33381,60.8453l-96.675 0 0 71.9995 75.9964 0c-10.8283,36.4958 -17.6597,62.9996 -20.4944,79.8231 -3.00471,16.8377 -4.50706,33.1651 -4.50706,49.0107 0,67.8326 25.0014,120.656 75.1743,158.824 40.3368,30.1746 89.1632,45.3399 146.494,45.3399 59.0028,0 107.503,-16.1716 145.842,-48.5005 38.1683,-32.499 61.6673,-78.009 70.4972,-136.502l-86.9947 -12.9968c-4.83304,38.9903 -19.5022,69.8311 -43.6674,92.3238 -24.3353,22.5069 -53.3335,33.6754 -87.3349,33.6754 -36.1699,0 -66.1744,-11.6645 -90.1695,-35.0077 -23.8392,-23.1589 -35.8297,-51.3351 -35.8297,-84.3302 0,-36.1699 9.17002,-83.3381 27.666,-141.661z"
   id="glyph230" />
   <glyph
   unicode=""
   horiz-adv-x="750"
   d="M125.007 0l0 625.007 500 0 0 -625.007 -500 0zm15.9873 16.0015l468.011 0 0 593.004 -468.011 0 0 -593.004z"
   id="glyph232" />
   <glyph
   unicode=""
   horiz-adv-x="750"
   d="M125.007 0l0 625.007 500 0 0 -625.007 -500 0zm15.9873 16.0015l468.011 0 0 593.004 -468.011 0 0 -593.004z"
   id="glyph234" />
   <glyph
   unicode="p"
   horiz-adv-x="556"
   d="M66.0043 -199.005l0 718.011 79.9932 0 0 -68.1728c18.8361,26.3337 40.1667,46.1619 64.0059,59.3288 23.6691,13.1668 52.4973,19.8424 86.3286,19.8424 44.3336,0 83.3381,-11.3385 117.169,-34.1714 33.8313,-22.6628 59.3288,-54.8359 76.6625,-96.1647 17.1637,-41.499 25.8376,-86.8388 25.8376,-136.331 0,-52.8375 -9.496,-100.502 -28.5022,-143.007 -19.0062,-42.3352 -46.6721,-74.8342 -82.9979,-97.497 -36.1699,-22.4928 -74.3381,-33.8313 -114.335,-33.8313 -29.3384,0 -55.6721,6.16532 -78.831,18.4959 -23.329,12.3306 -42.3352,27.836 -57.3303,46.6721l0 -253.175 -88.001 0zm79.9932 455.34c0,-66.5004 13.507,-115.667 40.3368,-147.5 26.9998,-31.8329 59.6689,-47.8343 97.9931,-47.8343 39.0045,0 72.3397,16.4975 100.006,49.4926 27.836,33.0092 41.669,84.0042 41.669,153.169 0,66.0043 -13.507,115.341 -40.6627,148.166 -27.1699,32.8392 -59.513,49.1666 -97.171,49.1666 -37.332,0 -70.3413,-17.4897 -98.9994,-52.3272 -28.8423,-35.0077 -43.1714,-85.6625 -43.1714,-152.333z"
   id="glyph236" />
   <glyph
   unicode="_"
   horiz-adv-x="556"
   d="M-14.9952 -199.005l0 62.9996 581.992 0 0 -62.9996 -581.992 0z"
   id="glyph238" />
   <glyph
   unicode="N"
   horiz-adv-x="722"
   d="M75.9964 0l0 715.999 97.3411 0 375.659 -561.993 0 561.993 91.0057 0 0 -715.999 -97.3411 0 -375.659 561.993 0 -561.993 -91.0057 0z"
   id="glyph240" />
   <glyph
   unicode="="
   horiz-adv-x="584"
   d="M528.006 420.999l-472.008 0 0 82.0058 472.008 0 0 -82.0058zm0 -217.005l-472.008 0 0 82.0058 472.008 0 0 -82.0058z"
   id="glyph242" />
   <glyph
   unicode=","
   horiz-adv-x="277"
   d="M88.9931 0l0 100.006 100.006 0 0 -100.006c0,-36.836 -6.50547,-66.6704 -19.6723,-89.3333 -12.9968,-22.6628 -33.8313,-40.3368 -62.3335,-52.6674l-23.9951 37.9982c18.666,8.16373 32.3289,20.1684 41.0029,35.8297 8.82987,15.8456 13.833,38.5084 14.8393,68.1728l-49.8469 0z"
   id="glyph244" />
   <glyph
   unicode="õ"
   horiz-adv-x="556"
   d="M32.9951 259.496c0,95.8388 26.6738,166.832 80.1774,213.008 44.4895,38.3242 98.9994,57.5004 163.161,57.5004 71.1633,0 129.5,-23.3432 174.84,-70.0011 45.1556,-46.5021 67.8326,-111.004 67.8326,-193.166 0,-66.6704 -10.0062,-118.998 -30.0045,-157.166 -19.9983,-38.1683 -49.1666,-67.8326 -87.505,-89.0073 -38.1683,-21.1605 -79.9932,-31.6628 -125.163,-31.6628 -72.6657,0 -131.328,23.1589 -176.172,69.661 -44.8296,46.5021 -67.1665,113.498 -67.1665,200.833zm89.9994 -0.155905c0,-66.3445 14.4991,-116.007 43.5115,-148.846 29.1541,-32.9951 65.6642,-49.4926 109.828,-49.4926 43.6674,0 79.9932,16.4975 109.162,49.6627 28.9982,33.1651 43.5115,83.664 43.5115,151.497 0,64.0059 -14.6692,112.506 -43.8375,145.346 -29.1683,32.9951 -65.5082,49.4926 -108.836,49.4926 -44.1635,0 -80.6735,-16.3275 -109.828,-49.1666 -29.0124,-32.825 -43.5115,-82.3318 -43.5115,-148.492zm-7.00153 322.666c-0.325982,33.4911 9.01412,60.165 27.836,80.1633 18.5101,19.8282 42.3352,29.8345 71.3334,29.8345 20.1684,0 47.6643,-8.50388 82.3318,-25.6676 19.1763,-9.496 34.5116,-14.329 45.8359,-14.329 10.5023,0 18.5101,2.82045 24.0093,8.48971 5.49918,5.49918 9.32593,16.8377 11.6645,33.5053l62.9996 0c-1.00629,-37.0061 -10.3322,-64.672 -28.0061,-83.168 -17.6597,-18.4959 -39.9966,-27.836 -67.3366,-27.836 -20.3243,0 -47.3241,9.17002 -80.6593,27.34 -21.8408,11.8346 -37.8281,17.6597 -48.0044,17.6597 -10.9984,0 -19.9983,-3.82675 -26.6597,-11.6645 -7.17161,-7.66767 -10.6724,-19.1621 -10.3322,-34.3273l-65.0122 0z"
   id="glyph246" />
   <glyph
   unicode="ä"
   horiz-adv-x="556"
   d="M404.997 64.998c-32.6691,-27.836 -64.1618,-47.3383 -94.3364,-58.8327 -30.1604,-11.4944 -62.4894,-17.1637 -97.1569,-17.1637 -57.0044,0 -100.842,13.833 -131.498,41.669 -30.6707,27.666 -46.006,63.1697 -46.006,106.327 0,25.3416 5.83933,48.5005 17.3337,69.5051 11.6645,20.9904 26.8298,37.658 45.4958,50.3288 18.8361,12.6708 39.8407,22.3369 63.3398,28.8282 17.3337,4.50706 43.4974,8.84404 78.3349,13.1668 70.9933,8.33381 123.491,18.5101 156.996,30.1746 0.340155,12.0046 0.49606,19.6723 0.49606,22.8329 0,35.6596 -8.33381,60.8311 -25.0014,75.5003 -22.4928,19.8282 -55.9981,29.6644 -100.332,29.6644 -41.499,0 -72.1696,-7.32751 -91.8278,-21.8266 -19.8282,-14.4991 -34.3415,-40.1667 -43.8375,-77.1727l-86.0026 12.0046c7.83775,36.836 20.6786,66.6563 38.6785,89.3333 17.9999,22.6628 43.9934,39.9966 77.9948,52.3272 33.8313,12.1747 73.3318,18.34 117.991,18.34 44.3336,0 80.5034,-5.1732 108.339,-15.6755 27.666,-10.5023 48.1745,-23.4991 61.1713,-39.3305 12.9968,-15.8314 22.1668,-35.8297 27.4959,-59.9949 2.83463,-15.0094 4.33698,-42.0092 4.33698,-80.8436l0 -116.659c0,-81.4955 1.82833,-133.001 5.49918,-154.827 3.50077,-21.8408 10.8283,-42.6753 21.5007,-62.6736l-91.9978 0c-8.84404,18.4959 -14.4991,40.1667 -17.0078,64.998zm-7.00153 195.008c-32.0029,-13.0109 -79.9932,-24.0093 -143.999,-33.0092 -36.3258,-5.15902 -61.9933,-10.9984 -77.0027,-17.5038 -14.9952,-6.4913 -26.4896,-15.9873 -34.6675,-28.3321 -8.16373,-12.5007 -12.3306,-26.3337 -12.3306,-41.6549 0,-23.1731 8.84404,-42.6753 26.6738,-58.1666 17.8298,-15.5054 43.8233,-23.3432 77.9948,-23.3432 33.8313,0 64.0059,7.34169 90.4955,22.1668 26.3337,14.6692 45.8359,34.8376 58.1666,60.3351 9.51018,19.8282 14.1731,48.9965 14.1731,87.505l0.49606 32.0029zm-245.989 322.992l0 100.006 91.9978 0 0 -100.006 -91.9978 0zm181.997 0l0 100.006 91.9978 0 0 -100.006 -91.9978 0z"
   id="glyph248" />
   <glyph
   unicode="Ó"
   horiz-adv-x="777"
   d="M48.0044 348.503c0,118.658 31.9888,211.662 95.8246,278.828 63.8358,67.1665 146.168,100.672 247.165,100.672 66.1744,0 125.673,-15.8314 178.837,-47.3383 53.0075,-31.4927 93.5002,-75.5003 121.336,-131.994 27.836,-56.3382 41.8391,-120.344 41.8391,-191.833 0,-72.5098 -14.6692,-137.508 -44.0076,-194.668 -29.3384,-57.3303 -70.8373,-100.672 -124.497,-129.996 -53.8296,-29.5085 -111.84,-44.1777 -174.004,-44.1777 -67.4925,0 -127.672,16.3416 -180.835,48.8406 -52.9934,32.499 -93.3301,76.8326 -120.67,133.171 -27.3258,56.154 -40.9887,115.653 -40.9887,178.497zm97.9931 -1.67243c0,-86.1585 23.1731,-153.991 69.5051,-203.498 46.332,-49.4926 104.499,-74.3381 174.5,-74.3381 71.3334,0 129.826,25.0014 176.002,75.0043 45.9918,50.0028 68.9948,120.996 68.9948,212.994 0,58.1666 -9.83616,109.006 -29.4943,152.347 -19.6723,43.3273 -48.5005,76.9885 -86.3428,100.828 -37.9982,23.8392 -80.4893,35.8297 -127.657,35.8297 -67.0106,0 -124.667,-23.003 -173.012,-68.9948 -48.3304,-46.006 -72.4956,-122.669 -72.4956,-230.172zm172.005 413.175l63.9917 136.998 116.007 0 -107.007 -136.998 -72.9917 0z"
   id="glyph250" />
   <glyph
   unicode="Â"
   horiz-adv-x="667"
   d="M-1.50235 0l274.675 715.999 104.158 0 291.499 -715.999 -107.829 0 -82.8278 217.005 -301.505 0 -77.6688 -217.005 -100.502 0zm206.007 293.993l243.991 0 -74.6641 198.509c-22.4928,60.3351 -39.5005,110.168 -51.3351,149.498 -9.82199,-46.6721 -22.9888,-92.4939 -39.5005,-137.834l-78.4908 -210.173zm119.494 549.011l-54.4957 -82.9979 -100.006 0 104.499 136.998 93.0041 0 111.5 -136.998 -100.006 0 -54.4957 82.9979z"
   id="glyph252" />
   <glyph
   unicode="±"
   horiz-adv-x="548"
   d="M232 127.005l0 196 -194.994 0 0 81.9916 194.994 0 0 195.008 82.9979 0 0 -195.008 195.008 0 0 -81.9916 -195.008 0 0 -196 -82.9979 0zm278.006 -127.005l-473 0 0 82.0058 473 0 0 -82.0058z"
   id="glyph254" />
   <glyph
   unicode=""
   horiz-adv-x="750"
   d="M125.007 0l0 625.007 500 0 0 -625.007 -500 0zm15.9873 16.0015l468.011 0 0 593.004 -468.011 0 0 -593.004z"
   id="glyph256" />
   <glyph
   unicode="~"
   horiz-adv-x="584"
   d="M41.995 273.003l0 99.9915c34.5116,38.6785 79.8373,58.0107 135.835,58.0107 19.6723,0 40.1667,-2.83463 61.6673,-8.67396 21.5007,-5.66926 52.1713,-17.1637 91.8419,-34.1714 22.4928,-9.496 39.3305,-15.8314 50.6548,-18.666 11.1684,-2.99053 22.5069,-4.49289 33.8455,-4.49289 21.3306,0 43.1572,6.33539 65.8201,19.0062 22.677,12.8267 42.6753,28.8282 60.3351,47.9902l0 -104.002c-20.8345,-19.3322 -41.995,-33.321 -63.3256,-41.995 -21.3306,-8.65979 -45.3399,-12.9968 -71.9995,-12.9968 -19.6723,0 -38.3383,2.32439 -55.9981,6.83145 -17.844,4.66296 -46.006,15.6613 -84.5003,32.9951 -38.6785,17.5038 -70.8373,26.1636 -96.675,26.1636 -20.8345,0 -40.4927,-4.49289 -58.8327,-13.3228 -18.3259,-8.84404 -41.3289,-26.5038 -68.6689,-52.6674z"
   id="glyph258" />
   <glyph
   unicode="m"
   horiz-adv-x="832"
   d="M66.0043 0l0 519.006 79.0011 0 0 -73.346c16.1574,25.3416 37.8281,45.8359 64.8279,61.1713 26.9998,15.5054 57.6705,23.1731 92.1679,23.1731 38.3383,0 69.8311,-8.00782 94.3364,-23.8392 24.4912,-16.0015 41.8249,-38.1683 51.8312,-66.8264 41.3289,60.491 94.8325,90.6656 160.837,90.6656 51.6611,0 91.4876,-14.1731 119.168,-42.6753 27.8219,-28.5022 41.8249,-72.3255 41.8249,-131.498l0 -355.831 -88.001 0 0 326.663c0,35.0077 -2.99053,60.3351 -8.65979,75.8405 -5.66926,15.4912 -16.0015,27.836 -31.1667,37.332 -15.0094,9.496 -32.6691,14.159 -52.8375,14.159 -36.6659,0 -66.9964,-12.1606 -91.1616,-36.3258 -24.1652,-24.3353 -36.1699,-63.1697 -36.1699,-116.503l0 -301.165 -88.001 0 0 336.839c0,38.9903 -7.17161,68.3287 -21.5007,87.8309 -14.329,19.5022 -37.8281,29.3242 -70.3271,29.3242 -24.6754,0 -47.5084,-6.4913 -68.513,-19.4881 -20.9904,-13.0109 -36.1557,-32.0029 -45.6659,-57.1744 -9.32593,-25.0014 -13.9889,-61.1713 -13.9889,-108.325l0 -269.006 -88.001 0z"
   id="glyph260" />
   <glyph
   unicode="\"
   horiz-adv-x="277"
   d="M207.665 -12.0046l-206.999 740.008 70.3271 0 207.013 -740.008 -70.3413 0z"
   id="glyph262" />
   <glyph
   unicode="K"
   horiz-adv-x="667"
   d="M73.0058 0l0 715.999 94.9884 0 0 -354.995 355.675 354.995 128.338 0 -300.343 -290.337 313.34 -425.662 -125.007 0 -254.833 361.33 -117.169 -113.328 0 -248.002 -94.9884 0z"
   id="glyph264" />
   <glyph
   unicode=":"
   horiz-adv-x="277"
   d="M89.9994 419.001l0 100.006 100.006 0 0 -100.006 -100.006 0zm0 -419.001l0 100.006 100.006 0 0 -100.006 -100.006 0z"
   id="glyph266" />
   <glyph
   unicode=")"
   horiz-adv-x="332"
   d="M124.001 -210.003l-62.9996 0c97.3269,156.174 145.998,312.504 145.998,469.003 0,61.1713 -7.00153,121.832 -21.0046,181.997 -10.9984,48.8406 -26.4896,95.6687 -46.332,140.668 -12.6566,29.1683 -38.9903,77.9948 -78.6609,146.338l62.9996 0c61.0012,-81.6656 106.171,-163.671 135.495,-246.003 25.0014,-70.8373 37.5021,-145.005 37.5021,-222.504 0,-87.8309 -16.8377,-172.827 -50.4989,-254.833 -33.5053,-81.9916 -74.3381,-153.495 -122.498,-214.666z"
   id="glyph268" />
   <glyph
   unicode="ò"
   horiz-adv-x="556"
   d="M32.9951 259.496c0,95.8388 26.6738,166.832 80.1774,213.008 44.4895,38.3242 98.9994,57.5004 163.161,57.5004 71.1633,0 129.5,-23.3432 174.84,-70.0011 45.1556,-46.5021 67.8326,-111.004 67.8326,-193.166 0,-66.6704 -10.0062,-118.998 -30.0045,-157.166 -19.9983,-38.1683 -49.1666,-67.8326 -87.505,-89.0073 -38.1683,-21.1605 -79.9932,-31.6628 -125.163,-31.6628 -72.6657,0 -131.328,23.1589 -176.172,69.661 -44.8296,46.5021 -67.1665,113.498 -67.1665,200.833zm89.9994 -0.155905c0,-66.3445 14.4991,-116.007 43.5115,-148.846 29.1541,-32.9951 65.6642,-49.4926 109.828,-49.4926 43.6674,0 79.9932,16.4975 109.162,49.6627 28.9982,33.1651 43.5115,83.664 43.5115,151.497 0,64.0059 -14.6692,112.506 -43.8375,145.346 -29.1683,32.9951 -65.5082,49.4926 -108.836,49.4926 -44.1635,0 -80.6735,-16.3275 -109.828,-49.1666 -29.0124,-32.825 -43.5115,-82.3318 -43.5115,-148.492zm224.006 323.658l-71.0074 0 -112.988 136.998 117.991 0 66.0043 -136.998z"
   id="glyph270" />
   <glyph
   unicode="á"
   horiz-adv-x="556"
   d="M404.997 64.998c-32.6691,-27.836 -64.1618,-47.3383 -94.3364,-58.8327 -30.1604,-11.4944 -62.4894,-17.1637 -97.1569,-17.1637 -57.0044,0 -100.842,13.833 -131.498,41.669 -30.6707,27.666 -46.006,63.1697 -46.006,106.327 0,25.3416 5.83933,48.5005 17.3337,69.5051 11.6645,20.9904 26.8298,37.658 45.4958,50.3288 18.8361,12.6708 39.8407,22.3369 63.3398,28.8282 17.3337,4.50706 43.4974,8.84404 78.3349,13.1668 70.9933,8.33381 123.491,18.5101 156.996,30.1746 0.340155,12.0046 0.49606,19.6723 0.49606,22.8329 0,35.6596 -8.33381,60.8311 -25.0014,75.5003 -22.4928,19.8282 -55.9981,29.6644 -100.332,29.6644 -41.499,0 -72.1696,-7.32751 -91.8278,-21.8266 -19.8282,-14.4991 -34.3415,-40.1667 -43.8375,-77.1727l-86.0026 12.0046c7.83775,36.836 20.6786,66.6563 38.6785,89.3333 17.9999,22.6628 43.9934,39.9966 77.9948,52.3272 33.8313,12.1747 73.3318,18.34 117.991,18.34 44.3336,0 80.5034,-5.1732 108.339,-15.6755 27.666,-10.5023 48.1745,-23.4991 61.1713,-39.3305 12.9968,-15.8314 22.1668,-35.8297 27.4959,-59.9949 2.83463,-15.0094 4.33698,-42.0092 4.33698,-80.8436l0 -116.659c0,-81.4955 1.82833,-133.001 5.49918,-154.827 3.50077,-21.8408 10.8283,-42.6753 21.5007,-62.6736l-91.9978 0c-8.84404,18.4959 -14.4991,40.1667 -17.0078,64.998zm-7.00153 195.008c-32.0029,-13.0109 -79.9932,-24.0093 -143.999,-33.0092 -36.3258,-5.15902 -61.9933,-10.9984 -77.0027,-17.5038 -14.9952,-6.4913 -26.4896,-15.9873 -34.6675,-28.3321 -8.16373,-12.5007 -12.3306,-26.3337 -12.3306,-41.6549 0,-23.1731 8.84404,-42.6753 26.6738,-58.1666 17.8298,-15.5054 43.8233,-23.3432 77.9948,-23.3432 33.8313,0 64.0059,7.34169 90.4955,22.1668 26.3337,14.6692 45.8359,34.8376 58.1666,60.3351 9.51018,19.8282 14.1731,48.9965 14.1731,87.505l0.49606 32.0029zm-185.002 322.992l64.0059 136.998 116.007 0 -107.007 -136.998 -73.0058 0z"
   id="glyph272" />
   <glyph
   unicode="Ð"
   horiz-adv-x="722"
   d="M77.0027 0l0 325.996 -79.0011 0 0 64.0059 79.0011 0 0 325.996 246.669 0c55.3319,0 97.6671,-3.33069 126.821,-10.1621 41.0029,-9.51018 76.0105,-26.6738 104.839,-51.3351 37.6722,-32.0029 66.0043,-72.6657 84.6703,-122.328 18.666,-49.6769 27.9919,-106.511 27.9919,-170.333 0,-72.8358 -11.4944,-135.679 -34.6675,-188.177 -22.9888,-52.6674 -50.6548,-90.8356 -82.8278,-114.491 -32.1589,-23.8392 -69.335,-40.8328 -111.16,-50.839 -23.1731,-5.49918 -57.8406,-8.33381 -104.343,-8.33381l-257.994 0zm95.0026 84.0042l152.333 0c47.3241,0 84.3302,4.32281 110.834,13.1668 26.6597,8.82987 47.6643,21.1605 63.3256,36.6659 22.3369,22.6628 39.8407,52.8233 52.4973,90.6656 12.6708,37.8281 19.0062,84.0042 19.0062,138.33 0,56.1682 -6.16532,100.998 -18.666,134.673 -12.5007,33.4911 -28.8282,60.491 -48.9965,80.6593 -19.9983,20.1684 -42.5052,34.3415 -67.1665,42.1651 -24.6754,7.83775 -62.3335,11.6645 -113.343,11.6645l-149.824 0 0 -241.992 196.992 0 0 -64.0059 -196.992 0 0 -241.992z"
   id="glyph274" />
   <glyph
   unicode="¿"
   horiz-adv-x="610"
   d="M356.993 519.006l0 -100.006 -89.9994 0 0 100.006 89.9994 0zm-5.99524 -176.002c0.340155,-10.9984 0.49606,-19.3322 0.49606,-24.8313 0,-35.8439 -4.83304,-66.3445 -14.655,-91.3459 -7.17161,-18.992 -18.666,-37.9982 -34.5116,-57.1603 -11.6645,-14.0031 -32.6549,-34.3273 -62.9996,-61.0012 -30.3305,-26.8298 -49.9887,-48.1603 -58.9886,-64.1618 -8.84404,-16.1716 -13.3369,-33.6754 -13.3369,-52.6674 0,-34.8376 13.3369,-64.998 40.1667,-91.0057 26.6597,-25.8376 59.4988,-38.8344 98.3332,-38.8344 37.332,0 68.4988,11.8346 93.8262,35.5037 25.3416,23.6691 41.8391,60.5051 49.6769,110.494l89.9994 -10.9984c-8.1779,-66.1602 -32.3431,-117.325 -72.6657,-153.155 -40.1667,-35.8439 -93.1742,-53.8438 -159.008,-53.8438 -70.4972,0 -126.495,19.1763 -167.994,57.3303 -41.499,38.1683 -62.3335,84.5003 -62.3335,138.67 0,31.6628 7.15744,60.6752 21.6707,86.8388 14.4991,26.1636 42.9871,57.9965 85.4924,95.8246 28.8282,25.6676 47.8343,44.6737 56.4941,56.6784 8.84404,11.9905 15.1794,25.8235 19.3463,41.499 3.99683,15.6613 6.32122,40.9887 6.98736,76.1664l84.0042 0z"
   id="glyph276" />
   <glyph
   unicode="®"
   horiz-adv-x="736"
   d="M369.834 728.003c61.8374,0 122.172,-15.8314 181.161,-47.6643 58.8327,-31.677 104.839,-77.1727 137.678,-136.176 32.825,-59.1587 49.3225,-120.826 49.3225,-184.832 0,-63.4957 -16.1574,-124.667 -48.6564,-183.159 -32.3431,-58.6768 -77.6688,-104.173 -136.176,-136.502 -58.4925,-32.499 -119.664,-48.6706 -183.33,-48.6706 -63.8358,0 -125.007,16.1716 -183.5,48.6706 -58.5067,32.3289 -104.002,77.8247 -136.502,136.502 -32.499,58.4925 -48.8265,119.664 -48.8265,183.159 0,64.0059 16.4975,125.673 49.4926,184.832 33.1651,59.0028 79.1712,104.499 138.004,136.176 59.0028,31.8329 119.324,47.6643 181.331,47.6643zm0 -61.0012c-51.8312,0 -102.33,-13.3369 -151.341,-39.8407 -48.9965,-26.4896 -87.3207,-64.4878 -114.987,-113.824 -27.6801,-49.3367 -41.5131,-100.672 -41.5131,-154.005 0,-53.1634 13.6771,-104.002 40.847,-152.659 27.1557,-48.6706 65.1539,-86.6687 113.995,-113.839 48.8265,-27.1699 99.8356,-40.8328 152.999,-40.8328 52.9934,0 104.002,13.6629 152.829,40.8328 48.8406,27.1699 86.8388,65.1681 113.839,113.839 26.9998,48.6564 40.4927,99.4954 40.4927,152.659 0,53.3335 -13.833,104.669 -41.3289,154.005 -27.4959,49.3367 -65.8342,87.3349 -115.001,113.824 -49.1666,26.5038 -99.4954,39.8407 -150.831,39.8407zm-161.829 -510.998l0 395.998 136.331 0c46.658,0 80.3334,-3.67084 101.168,-10.9984 20.9904,-7.34169 37.5021,-19.9983 49.9887,-38.3383 12.3448,-18.17 18.5101,-37.5021 18.5101,-57.9965 0,-28.8282 -10.3322,-54.1697 -31.1667,-75.5003 -20.6644,-21.5007 -48.1745,-33.5053 -82.5018,-36.1699 14.0031,-5.82516 25.3274,-12.8267 33.6612,-21.0046 16.0015,-15.4912 35.5037,-41.6549 58.6768,-78.4908l48.3304 -77.4987 -77.6688 0 -35.3336 62.3335c-27.666,49.1666 -50.1729,79.9932 -67.1665,92.3238 -11.6645,8.99994 -28.6723,13.507 -51.165,13.3369l-37.6722 0 0 -167.994 -63.9917 0zm63.9917 223l77.6688 0c37.162,0 62.5035,5.49918 75.9964,16.4975 13.507,10.9984 20.3385,25.6676 20.3385,43.6674 0,11.6645 -3.33069,22.1668 -9.83616,31.3368 -6.4913,9.32593 -15.4912,16.1574 -26.9998,20.6644 -11.6645,4.49289 -32.9951,6.83145 -64.3319,6.83145l-72.8358 0 0 -118.998z"
   id="glyph278" />
   <glyph
   unicode=""
   horiz-adv-x="750"
   d="M125.007 0l0 625.007 500 0 0 -625.007 -500 0zm15.9873 16.0015l468.011 0 0 593.004 -468.011 0 0 -593.004z"
   id="glyph280" />
   <glyph
   unicode=""
   horiz-adv-x="750"
   d="M125.007 0l0 625.007 500 0 0 -625.007 -500 0zm15.9873 16.0015l468.011 0 0 593.004 -468.011 0 0 -593.004z"
   id="glyph282" />
   <glyph
   unicode="{"
   horiz-adv-x="334"
   d="M28.0061 298.997c25.1573,0.666138 45.6659,7.34169 61.4973,20.3385 15.8314,12.8267 26.4896,30.5006 31.6628,52.8375 5.1732,22.4928 7.99365,60.8311 8.33381,115.157 0.170078,54.3398 1.00629,90.1695 2.49447,107.503 3.00471,27.34 8.33381,49.1666 16.3416,65.8342 7.82357,16.4975 17.6597,29.8345 29.3242,39.8265 11.6787,9.83616 26.6738,17.5038 44.8438,22.677 12.3306,3.16061 32.3289,4.83304 60.3351,4.83304l27.1557 0 0 -77.0027 -14.9952 0c-33.5053,0 -55.6721,-6.16532 -66.6704,-18.34 -10.8283,-12.1606 -16.3275,-39.3305 -16.3275,-81.6656 0,-85.1664 -1.82833,-138.996 -5.49918,-161.489 -5.83933,-34.8376 -16.0015,-61.6673 -30.1746,-80.5034 -14.329,-18.8361 -36.6659,-35.6738 -67.3224,-50.1729 36.1557,-14.9952 62.3335,-37.8281 78.6609,-68.4988 16.1716,-30.6707 24.3353,-80.9995 24.3353,-150.831 0,-63.3398 0.325982,-100.998 0.99212,-113.002 2.67872,-22.1668 9.17002,-37.5021 19.6723,-46.332 10.6724,-8.82987 31.3368,-13.1668 62.1634,-13.1668l15.1653 0 0 -77.0027 -27.3258 0c-31.8329,0 -55.006,2.66455 -69.335,7.83775 -20.6644,7.49759 -37.9982,19.5022 -51.6611,36.3258 -13.6771,16.6676 -22.5069,37.8423 -26.5038,63.5098 -4.1669,25.6676 -6.33539,67.8326 -6.67555,126.325 -0.325982,58.5067 -3.16061,98.9994 -8.33381,121.336 -5.15902,22.5069 -15.4912,40.1667 -31.1667,53.1634 -15.8314,13.0109 -35.9998,19.8424 -60.987,20.5085l0 79.9932z"
   id="glyph284" />
   <glyph
   unicode="j"
   horiz-adv-x="222"
   d="M65.4941 613.995l0 102.004 88.001 0 0 -102.004 -88.001 0zm-111.33 -814.658l16.1716 74.494c17.6597,-4.49289 31.4927,-6.83145 41.669,-6.83145 17.9999,0 31.3226,5.99524 40.1667,17.8298 8.82987,11.8346 13.3228,41.669 13.3228,89.1774l0 545 88.001 0 0 -546.842c0,-63.8358 -8.33381,-108.325 -25.0014,-133.327 -21.1605,-32.499 -56.3241,-48.8406 -105.491,-48.8406 -23.8392,0 -46.6721,3.17478 -68.8389,9.3401z"
   id="glyph286" />
   <glyph
   unicode="Y"
   horiz-adv-x="667"
   d="M278.828 0l0 303.334 -275.994 412.665 113.995 0 141.505 -216.665c26.3337,-40.1667 50.839,-80.3334 73.1617,-120.5 21.8408,37.5021 48.3446,79.4971 79.1712,126.169l138.67 210.996 110.494 0 -286 -412.665 0 -303.334 -95.0026 0z"
   id="glyph288" />
   <glyph
   unicode="H"
   horiz-adv-x="722"
   d="M80.9995 0l0 715.999 95.0026 0 0 -295 370.004 0 0 295 94.9884 0 0 -715.999 -94.9884 0 0 336.995 -370.004 0 0 -336.995 -95.0026 0z"
   id="glyph290" />
   <glyph
   unicode="7"
   horiz-adv-x="556"
   d="M46.9981 622.995l0 84.0042 463.008 0 0 -68.0027c-45.5099,-48.5005 -90.8356,-113.002 -135.509,-193.492 -44.8296,-80.5034 -79.3271,-163.331 -103.832,-248.498 -17.5038,-59.839 -28.8282,-125.673 -33.6612,-197.007l-89.9994 0c0.99212,56.3382 11.9905,124.497 33.1651,204.334 21.1605,79.9932 51.3351,156.996 90.8356,231.164 39.5005,74.168 81.4955,136.672 125.999,187.496l-350.006 0z"
   id="glyph292" />
   <glyph
   unicode="&amp;"
   horiz-adv-x="667"
   d="M475.665 84.9963c-28.9982,-32.0029 -60.661,-55.9981 -94.8325,-71.9995 -34.1714,-16.0015 -71.1633,-23.9951 -111.004,-23.9951 -73.3318,0 -131.498,24.6613 -174.5,73.998 -34.8234,40.3368 -52.3272,85.1664 -52.3272,134.829 0,44.1777 14.159,84.0042 42.6611,119.508 28.5022,35.6596 71.1775,66.8264 127.672,93.8262 -32.499,37.0061 -54.1697,67.1665 -64.998,90.3396 -10.8425,23.003 -16.3416,45.3257 -16.3416,66.8264 0,43.0013 16.8377,80.3334 50.669,112.01 33.6754,31.8329 76.1664,47.6643 127.502,47.6643 48.8406,0 89.0073,-15.0094 120.174,-44.9997 31.1667,-30.0045 46.658,-66.1744 46.658,-108.169 0,-68.1728 -45.3257,-126.495 -136.161,-174.67l129.67 -162.665c14.8251,28.6723 26.3337,61.8374 34.4974,99.6655l90.9916 -19.6581c-15.6613,-62.3335 -36.8218,-113.343 -63.6657,-153.169 32.8392,-43.4974 70.1712,-80.0074 111.67,-109.672l-59.0028 -69.661c-35.3336,22.4928 -71.6594,55.9981 -109.332,99.9915zm-179.999 371.832c38.3383,22.677 62.9996,42.3352 74.3381,59.3429 11.3243,16.9936 16.9936,35.8297 16.9936,56.4941 0,24.5054 -7.83775,44.5037 -23.329,59.9949 -15.5054,15.5054 -35.0077,23.3432 -58.1666,23.3432 -23.8392,0 -43.8375,-7.66767 -59.6689,-23.003 -15.8314,-15.3353 -23.8392,-34.1714 -23.8392,-56.4941 0,-11.0125 2.83463,-22.8329 8.67396,-35.0077 5.66926,-12.3306 14.159,-25.3274 25.6676,-39.0045l39.3305 -45.6659zm124.001 -303.163l-160.327 200.167c-47.6784,-28.162 -79.8373,-54.3256 -96.3348,-78.505 -16.6676,-24.1652 -25.0014,-47.9902 -25.0014,-71.6594 0,-28.8282 11.4944,-58.8327 34.6675,-89.9994 22.9888,-31.1667 55.6579,-46.6721 97.823,-46.6721 26.3337,0 53.6737,8.00782 81.6656,24.1652 28.1762,16.1716 50.669,37.0061 67.5067,62.5035z"
   id="glyph294" />
   <glyph
   unicode="ï"
   horiz-adv-x="277"
   d="M97.001 0l0 519.006 88.001 0 0 -519.006 -88.001 0zm-93.9963 582.998l0 100.006 91.9978 0 0 -100.006 -91.9978 0zm181.997 0l0 100.006 91.9978 0 0 -100.006 -91.9978 0z"
   id="glyph296" />
   <glyph
   unicode="Þ"
   horiz-adv-x="667"
   d="M77.0027 0l0 715.999 95.0026 0 0 -145.998 174.996 0c47.4942,0 83.8341,-2.33857 109.332,-6.83145 35.0077,-6.16532 64.502,-17.5038 88.1711,-33.8313 23.6691,-16.5117 42.6611,-39.5005 56.9902,-69.009 14.3432,-29.4943 21.5007,-61.9933 21.5007,-97.497 0,-60.3351 -19.3322,-111.67 -57.9965,-153.665 -38.6643,-42.1651 -108.665,-63.1697 -209.663,-63.1697l-183.33 0 0 -145.998 -95.0026 0zm95.0026 230.002l184.492 0c61.0012,0 104.343,11.3385 129.996,34.1714 25.6676,22.8329 38.5084,54.6658 38.5084,95.8246 0,29.6644 -7.49759,55.1619 -22.3369,76.6625 -14.9952,21.5007 -34.8376,35.6738 -59.4988,42.5052 -15.8314,4.50706 -45.3257,6.83145 -88.4971,6.83145l-182.663 0 0 -255.995z"
   id="glyph298" />
   <glyph
   unicode="Í"
   horiz-adv-x="277"
   d="M93.0041 0l0 715.999 95.0026 0 0 -715.999 -95.0026 0zm-28.9982 760.006l63.9917 136.998 116.007 0 -107.007 -136.998 -72.9917 0z"
   id="glyph300" />
   <glyph
   unicode="¼"
   horiz-adv-x="834"
   d="M122.995 -28.0061l537.672 756.009 76.6625 0 -537.658 -756.009 -76.6767 0zm39.0045 386.005l0 271.16c-33.1651,-26.3195 -69.5051,-44.8296 -109.006,-55.1619l0 60.0091c20.1684,6.4913 42.5052,18.3259 67.1665,35.4895 24.6754,17.1637 44.6737,35.6738 60.0091,55.502l52.8375 0 0 -366.999 -71.0074 0zm537.006 -372.995l0 74.9901 -187 0 0 60.3351 197.659 231.674 59.3429 0 0 -239.002 50.995 0 0 -53.0075 -50.995 0 0 -74.9901 -70.0011 0zm0 127.998l0 128.494 -112.336 -128.494 112.336 0z"
   id="glyph302" />
   <glyph
   unicode="«"
   horiz-adv-x="556"
   d="M165.996 257.498l127.005 -222.504 -71.0074 0 -156.996 222.504 156.996 222.504 71.9995 0 -127.998 -222.504zm188.999 0l130.01 -222.504 -73.998 0 -154.005 222.504 154.005 222.504 73.998 0 -130.01 -222.504z"
   id="glyph304" />
   <glyph
   unicode=""
   horiz-adv-x="750"
   d="M125.007 0l0 625.007 500 0 0 -625.007 -500 0zm15.9873 16.0015l468.011 0 0 593.004 -468.011 0 0 -593.004z"
   id="glyph306" />
   <glyph
   unicode=""
   horiz-adv-x="750"
   d="M125.007 0l0 625.007 500 0 0 -625.007 -500 0zm15.9873 16.0015l468.011 0 0 593.004 -468.011 0 0 -593.004z"
   id="glyph308" />
   <glyph
   unicode="x"
   horiz-adv-x="500"
   d="M5.99524 0l189.509 268.836 -175.506 250.17 108.169 0 82.0058 -122.513c15.1653,-22.9888 27.1557,-41.6549 35.6596,-56.3241 14.8393,20.8345 28.0061,39.6706 39.8265,56.4941l86.3428 122.343 107.503 0 -176.512 -250.17 188.007 -268.836 -106.993 0 -107.347 160.001 -24.4912 38.4942 -138.67 -198.495 -107.503 0z"
   id="glyph310" />
   <glyph
   unicode="g"
   horiz-adv-x="556"
   d="M49.8328 -43.0013l84.9963 -12.0046c3.50077,-26.3337 13.507,-45.4958 29.8345,-57.6563 21.8408,-16.1716 51.6753,-24.3353 89.5034,-24.3353 40.6627,0 72.1696,8.16373 94.3364,24.3353 22.1668,16.1574 37.162,38.9903 44.9997,68.1586 4.49289,17.844 6.66138,55.3319 6.33539,112.506 -38.5084,-45.3399 -86.3428,-68.0027 -143.673,-68.0027 -71.3334,0 -126.665,25.6676 -165.67,77.1727 -39.1604,51.3209 -58.6626,112.988 -58.6626,184.832 0,49.4926 8.99994,95.1585 26.8298,136.998 17.844,41.8249 43.8375,73.998 77.8389,96.8309 34.0014,22.8329 73.998,34.1714 120.004,34.1714 61.1571,0 111.656,-25.0014 151.327,-75.0043l0 64.0059 80.9995 0 0 -448.169c0,-80.8436 -8.16373,-138.004 -24.6613,-171.665 -16.3416,-33.6754 -42.5052,-60.3351 -78.009,-79.8373 -35.6596,-19.5022 -79.4971,-29.3384 -131.498,-29.3384 -61.8232,0 -111.656,13.833 -149.668,41.669 -38.1683,27.666 -56.4941,69.5051 -55.1619,125.333zm71.9995 311.341c0,-67.8468 13.507,-117.339 40.5068,-148.506 27.1557,-31.1667 61.0012,-46.8281 101.664,-46.8281 40.4927,0 74.3239,15.4912 101.834,46.4879 27.3258,31.0108 41.0029,79.6672 41.0029,146.012 0,63.3256 -14.1731,111.16 -42.3352,143.333 -28.1762,32.1589 -62.1776,48.1603 -101.834,48.1603 -39.1746,0 -72.3397,-15.8314 -99.8356,-47.4942 -27.34,-31.677 -41.0029,-78.6751 -41.0029,-141.164z"
   id="glyph312" />
   <glyph
   unicode="V"
   horiz-adv-x="667"
   d="M280.997 0l-276.66 715.999 102.656 0 186.008 -520.338c14.8251,-41.6549 27.4959,-80.6593 37.5021,-117.155 10.9984,39.1604 23.825,78.1649 38.4942,117.155l192.996 520.338 96.675 0 -279.168 -715.999 -98.5033 0z"
   id="glyph314" />
   <glyph
   unicode="E"
   horiz-adv-x="667"
   d="M79.0011 0l0 715.999 516.994 0 0 -84.0042 -421.991 0 0 -219.995 394.991 0 0 -84.0042 -394.991 0 0 -243.991 438.999 0 0 -84.0042 -534.001 0z"
   id="glyph316" />
   <glyph
   unicode="4"
   horiz-adv-x="556"
   d="M323.006 0l0 170.999 -311.001 0 0 80.9995 326.988 464 72.0137 0 0 -464 96.9868 0 0 -80.9995 -96.9868 0 0 -170.999 -88.001 0zm0 251.998l0 322.17 -224.503 -322.17 224.503 0z"
   id="glyph318" />
   <glyph
   unicode="#"
   horiz-adv-x="556"
   d="M50.0028 -12.0046l42.4911 208.005 -82.4877 0 0 73.0058 97.3269 0 36.1699 176.994 -133.497 0 0 73.0058 148.322 0 42.6753 208.997 73.3318 0 -42.6753 -208.997 152.503 0 42.6753 208.997 73.1617 0 -42.6611 -208.997 84.6562 0 0 -73.0058 -99.4954 0 -36.1699 -176.994 135.665 0 0 -73.0058 -150.49 0 -42.5052 -208.005 -73.3318 0 42.5052 208.005 -152.503 0 -42.5052 -208.005 -73.1617 0zm130.492 281.011l152.503 0 36.1699 176.994 -152.503 0 -36.1699 -176.994z"
   id="glyph320" />
   <glyph
   unicode="ý"
   horiz-adv-x="500"
   d="M61.9933 -199.501l-9.99206 81.3396c19.3322,-5.1732 35.9998,-7.83775 50.3288,-7.83775 19.6723,0 35.3336,3.33069 46.9981,9.83616 11.8346,6.4913 21.5007,15.6613 28.9982,27.3258 5.51335,8.84404 14.5133,30.6707 26.8439,65.6642 1.65826,4.83304 4.1669,12.0046 7.82357,21.5007l-196.992 520.679 93.9963 0 108.339 -299.677c14.159,-37.8281 26.6597,-77.8247 37.8281,-119.834 10.1621,39.5005 22.1668,78.505 36.1699,116.843l110.664 302.667 87.8309 0 -196.156 -528.006c-21.1747,-56.8343 -37.6722,-95.8388 -49.5068,-117.339 -15.6613,-28.8282 -33.6612,-49.9887 -53.8296,-63.4957 -20.3385,-13.4928 -44.5037,-20.1684 -72.5098,-20.1684 -16.9936,0 -35.9998,3.50077 -56.8343,10.5023zm138.004 782.499l64.0059 136.998 115.993 0 -106.993 -136.998 -73.0058 0z"
   id="glyph322" />
   <glyph
   unicode="ì"
   horiz-adv-x="277"
   d="M97.001 0l0 519.006 88.001 0 0 -519.006 -88.001 0zm115.001 582.998l-71.0074 0 -112.988 136.998 117.991 0 66.0043 -136.998z"
   id="glyph324" />
   <glyph
   unicode="Û"
   horiz-adv-x="722"
   d="M546.006 715.999l94.9884 0 0 -413.501c0,-71.9995 -8.16373,-129.16 -24.3211,-171.495 -16.3416,-42.1651 -45.68,-76.6625 -88.001,-103.166 -42.5052,-26.5038 -98.0073,-39.8407 -167.002,-39.8407 -66.8405,0 -121.676,11.5086 -164.167,34.6675 -42.6753,23.1731 -73.0058,56.5083 -91.1758,100.332 -18.1558,43.8375 -27.3258,103.677 -27.3258,179.503l0 413.501 95.0026 0 0 -413.331c0,-62.1634 5.82516,-108.169 17.3337,-137.508 11.4944,-29.4943 31.1667,-52.3272 59.3288,-68.1586 28.0061,-16.0015 62.3335,-23.9951 102.84,-23.9951 69.3208,0 118.828,15.8314 148.322,47.3241 29.5085,31.677 44.1777,92.338 44.1777,182.337l0 413.331zm-183.004 127.005l-54.4957 -82.9979 -100.006 0 104.499 136.998 93.0041 0 111.5 -136.998 -100.006 0 -54.4957 82.9979z"
   id="glyph326" />
   <glyph
   unicode="Ê"
   horiz-adv-x="667"
   d="M79.0011 0l0 715.999 516.994 0 0 -84.0042 -421.991 0 0 -219.995 394.991 0 0 -84.0042 -394.991 0 0 -243.991 438.999 0 0 -84.0042 -534.001 0zm266.994 843.004l-54.4957 -82.9979 -100.006 0 104.513 136.998 92.99 0 111.5 -136.998 -99.9915 0 -54.5099 82.9979z"
   id="glyph328" />
   <glyph
   unicode="¹"
   horiz-adv-x="332"
   d="M161.007 357.999l0 271.16c-33.1793,-26.3195 -69.5051,-44.8296 -109.006,-55.1619l0 60.0091c20.1684,6.4913 42.5052,18.3259 67.1665,35.4895 24.6613,17.1637 44.6596,35.6738 59.9949,55.502l52.8375 0 0 -366.999 -70.9933 0z"
   id="glyph330" />
   <glyph
   unicode="¨"
   horiz-adv-x="332"
   d="M28.9982 620.004l0 99.9915 91.9978 0 0 -99.9915 -91.9978 0zm181.997 0l0 99.9915 91.9978 0 0 -99.9915 -91.9978 0z"
   id="glyph332" />
   <glyph
   unicode=""
   horiz-adv-x="750"
   d="M125.007 0l0 625.007 500 0 0 -625.007 -500 0zm15.9873 16.0015l468.011 0 0 593.004 -468.011 0 0 -593.004z"
   id="glyph334" />
   <glyph
   unicode=""
   horiz-adv-x="750"
   d="M125.007 0l0 625.007 500 0 0 -625.007 -500 0zm15.9873 16.0015l468.011 0 0 593.004 -468.011 0 0 -593.004z"
   id="glyph336" />
   <glyph
   unicode="u"
   horiz-adv-x="556"
   d="M404.997 0l0 77.1727c-40.3368,-58.8327 -95.0026,-88.1711 -164.167,-88.1711 -30.5006,0 -59.0028,5.82516 -85.4924,17.5038 -26.5038,11.8346 -46.1761,26.4896 -59.0028,44.1635 -12.8409,17.8298 -21.8408,39.5005 -26.9998,65.1681 -3.50077,17.3337 -5.3291,44.6596 -5.3291,81.9916l0 321.178 88.001 0 0 -287.176c0,-45.8359 1.82833,-76.8326 5.3291,-92.664 5.49918,-23.1731 17.1637,-41.173 35.1636,-54.3256 17.8298,-13.1668 39.8407,-19.8424 66.1602,-19.8424 26.3337,0 51.0091,6.67555 74.0121,20.1684 22.9888,13.507 39.3305,32.0029 48.9965,55.1619 9.496,23.1731 14.329,57.0044 14.329,101.168l0 277.51 88.001 0 0 -519.006 -79.0011 0z"
   id="glyph338" />
   <glyph
   unicode="d"
   horiz-adv-x="556"
   d="M401.001 0l0 65.8342c-32.8392,-51.165 -81.1696,-76.8326 -145.005,-76.8326 -41.3289,0 -79.3271,11.3385 -113.824,34.1714 -34.6675,22.6628 -61.4973,54.4957 -80.6735,95.1585 -18.992,40.8328 -28.5022,87.675 -28.5022,140.668 0,51.6611 8.67396,98.5033 25.8376,140.668 17.3337,41.995 43.1714,74.3381 77.6688,96.6608 34.3273,22.5069 72.9917,33.6754 115.497,33.6754 31.3368,0 59.1729,-6.67555 83.5081,-19.8424 24.3211,-13.1668 44.1635,-30.5006 59.4988,-51.6611l0 257.498 88.001 0 0 -715.999 -82.0058 0zm-278.006 258.83c0,-66.3303 14.0031,-115.823 42.1651,-148.662 28.0061,-32.8392 61.1713,-49.1666 99.3395,-49.1666 38.4942,0 71.1633,15.6613 98.1632,46.9981 26.8439,31.3368 40.3368,79.1712 40.3368,143.503 0,70.6673 -13.6629,122.669 -41.1588,155.834 -27.34,33.1651 -61.1713,49.6627 -101.338,49.6627 -39.1746,0 -71.8295,-15.8314 -98.1632,-47.6643 -26.1778,-31.8329 -39.3446,-82.0058 -39.3446,-150.505z"
   id="glyph340" />
   <glyph
   unicode="S"
   horiz-adv-x="667"
   d="M46.006 230.002l88.9931 7.99365c4.1669,-35.9998 14.0031,-65.4941 29.4943,-88.6672 15.5054,-22.9888 39.5005,-41.6549 71.9995,-55.9981 32.5132,-14.159 69.1791,-21.3306 109.842,-21.3306 36.1699,0 68.0027,5.3291 95.6687,16.1716 27.666,10.8283 48.1603,25.6676 61.6673,44.4895 13.4928,18.8361 20.3243,39.3446 20.3243,61.3413 0,22.3369 -6.4913,41.8249 -19.4881,58.6626 -13.0109,16.6676 -34.5116,30.6707 -64.502,42.1651 -19.1763,7.34169 -61.6673,19.0062 -127.502,34.8376 -65.8342,15.8314 -111.84,30.6707 -138.174,44.6596 -34.1573,17.9999 -59.4988,40.3368 -76.1664,66.8405 -16.8235,26.5038 -25.1573,56.3382 -25.1573,89.1632 0,36.3399 10.3322,70.1712 30.8266,101.508 20.4944,31.4927 50.3288,55.3319 89.8294,71.6594 39.3446,16.3416 83.168,24.5054 131.342,24.5054 52.9934,0 99.8356,-8.50388 140.328,-25.6676 40.5068,-17.0078 71.6736,-42.1651 93.5002,-75.5003 21.8408,-33.1651 33.5053,-70.8373 35.1636,-112.832l-90.9916 -7.00153c-4.83304,45.1698 -21.3447,79.3271 -49.5068,102.33 -28.162,23.1731 -69.8311,34.6675 -124.837,34.6675 -57.3303,0 -99.1553,-10.5023 -125.333,-31.4927 -26.1636,-21.0046 -39.3305,-46.3462 -39.3305,-76.0105 0,-25.6676 9.3401,-46.8281 27.836,-63.4957 18.34,-16.4975 65.8342,-33.6612 142.837,-50.995 77.0027,-17.5038 129.826,-32.6691 158.498,-45.6659 41.499,-19.1763 72.3255,-43.3415 92.1679,-72.8358 19.8282,-29.3384 29.6644,-63.1697 29.6644,-101.508 0,-38.1683 -10.8283,-73.8279 -32.6691,-107.489 -21.8266,-33.6754 -52.9934,-59.839 -93.8262,-78.505 -40.8328,-18.666 -86.6687,-28.0061 -137.834,-28.0061 -64.672,0 -118.842,9.51018 -162.509,28.3321 -43.8233,18.8361 -77.9948,47.1682 -102.826,85.1664 -25.0014,37.8423 -37.9982,80.6735 -39.3305,128.508z"
   id="glyph342" />
   <glyph
   unicode="B"
   horiz-adv-x="667"
   d="M73.0058 0l0 715.999 268.666 0c54.6658,0 98.4891,-7.17161 131.668,-21.6707 32.9951,-14.4991 58.8327,-36.8218 77.4987,-66.9964 18.8219,-30.0045 28.162,-61.4973 28.162,-94.4923 0,-30.5006 -8.33381,-59.3429 -24.8313,-86.3428 -16.4975,-26.9998 -41.499,-48.8265 -75.0043,-65.4941 43.3415,-12.6708 76.6625,-34.3415 99.8356,-64.998 23.329,-30.5006 34.9935,-66.6704 34.9935,-108.339 0,-33.6612 -7.15744,-64.8279 -21.3306,-93.6703 -14.159,-28.8282 -31.6628,-50.995 -52.4973,-66.6563 -20.8345,-15.5054 -46.9981,-27.34 -78.3349,-35.3336 -31.4927,-8.00782 -70.0011,-12.0046 -115.667,-12.0046l-273.159 0zm94.9884 415.004l154.842 0c41.995,0 72.1696,2.83463 90.3254,8.33381 24.1652,7.15744 42.3352,19.1621 54.5099,35.8297 12.1606,16.6676 18.3259,37.5021 18.3259,62.6594 0,23.8392 -5.66926,44.8438 -17.1637,62.8437 -11.3385,18.17 -27.666,30.6565 -48.8265,37.332 -21.1747,6.66138 -57.5004,9.99206 -108.836,9.99206l-143.177 0 0 -216.991zm0 -330.999l178.341 0c30.6707,0 52.1713,1.1622 64.672,3.50077 21.6566,3.82675 39.9966,10.3322 54.6658,19.4881 14.655,9.17002 26.6597,22.5069 36.1557,40.0108 9.51018,17.4897 14.1731,37.658 14.1731,60.491 0,26.8439 -6.83145,50.0028 -20.6644,69.8452 -13.6771,19.8282 -32.6691,33.6612 -57.0044,41.6549 -24.1652,8.00782 -59.1729,12.0046 -104.669,12.0046l-165.67 0 0 -246.995z"
   id="glyph344" />
   <glyph
   unicode="1"
   horiz-adv-x="556"
   d="M372.002 0l-88.001 0 0 560.335c-21.1747,-20.3385 -48.9965,-40.5068 -83.3381,-60.6752 -34.3273,-20.1542 -65.324,-35.3195 -92.664,-45.3257l0 84.9963c49.1666,23.003 92.1679,51.0091 129.004,84.0042 36.836,32.825 62.9996,64.672 78.3349,95.6687l56.6642 0 0 -719.003z"
   id="glyph346" />
   <glyph
   unicode=" "
   horiz-adv-x="277"
   d=""
   id="glyph348" />
   <glyph
   unicode="ú"
   horiz-adv-x="556"
   d="M404.997 0l0 77.1727c-40.3368,-58.8327 -95.0026,-88.1711 -164.167,-88.1711 -30.5006,0 -59.0028,5.82516 -85.4924,17.5038 -26.5038,11.8346 -46.1761,26.4896 -59.0028,44.1635 -12.8409,17.8298 -21.8408,39.5005 -26.9998,65.1681 -3.50077,17.3337 -5.3291,44.6596 -5.3291,81.9916l0 321.178 88.001 0 0 -287.176c0,-45.8359 1.82833,-76.8326 5.3291,-92.664 5.49918,-23.1731 17.1637,-41.173 35.1636,-54.3256 17.8298,-13.1668 39.8407,-19.8424 66.1602,-19.8424 26.3337,0 51.0091,6.67555 74.0121,20.1684 22.9888,13.507 39.3305,32.0029 48.9965,55.1619 9.496,23.1731 14.329,57.0044 14.329,101.168l0 277.51 88.001 0 0 -519.006 -79.0011 0zm-189.991 582.998l63.9917 136.998 116.007 0 -107.007 -136.998 -72.9917 0z"
   id="glyph350" />
   <glyph
   unicode="é"
   horiz-adv-x="556"
   d="M420.007 167.994l90.9916 -11.9905c-14.159,-52.8375 -40.6627,-94.0104 -79.3271,-123.165 -38.6643,-29.1683 -88.001,-43.8375 -148.166,-43.8375 -75.6704,0 -135.665,23.329 -179.999,70.0011 -44.3336,46.5021 -66.5004,111.996 -66.5004,196.17 0,86.9947 22.3227,154.657 67.1665,202.662 44.8296,48.1603 102.996,72.1696 174.5,72.1696 69.1649,0 125.659,-23.4991 169.497,-70.6673 43.8375,-47.1682 65.8342,-113.498 65.8342,-199.005 0,-5.15902 -0.170078,-12.9968 -0.49606,-23.329l-386.502 0c3.33069,-56.8343 19.3322,-100.502 48.3304,-130.676 28.8282,-30.1604 64.998,-45.3257 108.169,-45.3257 32.1589,0 59.6547,8.50388 82.3318,25.4975 22.8329,17.0078 40.8328,44.1635 54.1697,81.4955zm-288.012 141.009l289.004 0c-3.82675,43.6674 -14.9952,76.3365 -33.1651,98.1632 -27.836,33.8313 -64.1618,50.839 -108.665,50.839 -40.3368,0 -74.168,-13.507 -101.664,-40.5068 -27.34,-26.9998 -42.5052,-63.1697 -45.5099,-108.495zm74.0121 273.995l63.9917 136.998 116.007 0 -107.007 -136.998 -72.9917 0z"
   id="glyph352" />
   <glyph
   unicode="Ø"
   horiz-adv-x="777"
   d="M610.168 650.505l81.8357 91.5018 48.1603 -41.0029 -85.8325 -96.1647c27.836,-41.669 46.5021,-78.009 56.3382,-109.346 12.8267,-40.9887 19.3322,-86.9947 19.3322,-137.664 0,-73.3318 -14.8393,-138.656 -44.3336,-196 -29.6644,-57.3303 -71.1633,-100.502 -124.667,-129.826 -53.5036,-29.3384 -110.338,-44.0076 -170.503,-44.0076 -44.8296,0 -85.4924,6.33539 -121.832,19.0062 -28.0061,9.83616 -60.661,28.6581 -98.1632,56.3382l-82.3318 -92.338 -48.1745 41.1588 86.1727 96.5049c-32.0029,48.5005 -53.3335,89.8294 -64.0059,124.171 -10.8283,34.3273 -16.1574,75.6704 -16.1574,123.831 0,73.5019 14.655,138.996 43.9934,196.326 29.3384,57.5004 70.3271,101.012 123.335,130.676 52.8375,29.4943 111.67,44.3336 176.498,44.3336 43.6674,0 81.8357,-5.83933 114.505,-17.3337 32.825,-11.5086 68.0027,-31.5069 105.831,-60.165zm-59.1729 -66.1744c-30.8266,24.1652 -57.5004,40.6769 -80.4893,49.5068 -22.8329,8.82987 -49.6769,13.1668 -80.5034,13.1668 -71.1633,0 -129.996,-24.1652 -176.342,-72.5098 -46.4879,-48.3304 -69.661,-120.5 -69.661,-216.495 0,-37.6722 3.50077,-71.3334 10.6724,-100.502 5.15902,-21.8266 16.0015,-48.6706 32.499,-80.5034l363.824 407.336zm40.0108 -50.3288l-362.506 -405.834c25.1715,-20.4944 48.3304,-34.8376 69.335,-43.0013 27.666,-10.8283 57.5004,-16.1716 89.6593,-16.1716 70.8373,0 129.174,25.0014 175.336,75.1743 46.1761,50.1587 69.1649,120.5 69.1649,210.825 0,67.8326 -13.6629,127.346 -40.9887,179.007z"
   id="glyph354" />
   <glyph
   unicode="Ç"
   horiz-adv-x="722"
   d="M586.995 251.162l95.0026 -23.9951c-19.8282,-77.8389 -55.502,-136.998 -106.993,-177.83 -51.5052,-40.8328 -114.505,-61.3413 -188.999,-61.3413 -77.0027,0 -139.676,15.6755 -188.007,47.1682 -48.3304,31.3368 -84.9963,76.8326 -110.168,136.331 -25.1573,59.6689 -37.8281,123.505 -37.8281,191.833 0,74.5082 14.159,139.506 42.6611,195.008 28.5022,55.502 69.009,97.6671 121.506,126.495 52.4973,28.8282 110.324,43.1714 173.323,43.1714 71.6736,0 131.839,-18.17 180.509,-54.6658 48.8265,-36.51 82.8278,-87.675 102.004,-153.665l-93.0041 -22.0109c-16.4975,52.0012 -40.6627,89.9994 -72.1696,113.669 -31.4927,23.8392 -71.1633,35.6738 -118.998,35.6738 -54.8359,0 -100.842,-13.1668 -137.664,-39.5005 -36.836,-26.3337 -62.8437,-61.8374 -77.6688,-106.171 -15.0094,-44.5037 -22.5069,-90.3254 -22.5069,-137.494 0,-60.8453 8.84404,-114.009 26.5038,-159.334 17.6739,-45.5099 45.1698,-79.3412 82.5018,-101.834 37.332,-22.5069 77.6688,-33.6754 121.166,-33.6754 52.9934,0 97.6671,15.3353 134.333,45.8359 36.6659,30.6707 61.4973,75.9964 74.494,136.331zm-277.326 -337.165l25.3274 86.0026 64.998 0 -16.1574 -52.0012c27.836,-3.33069 48.8265,-11.8346 62.9996,-25.6676 14.159,-13.6629 21.1605,-28.9982 21.1605,-45.8359 0,-24.3353 -11.8346,-45.8218 -35.5037,-64.502 -23.4991,-18.666 -59.1587,-27.9919 -106.667,-27.9919 -26.8298,0 -50.4989,0 -70.8232,0l5.00312 61.9933c21.1605,-0.666138 36.4958,-0.99212 46.4879,-0.99212 30.8408,0 52.6674,4.1669 65.1681,12.6708 9.51018,6.4913 14.3432,14.329 14.3432,23.825 0,5.83933 -1.84251,10.9984 -5.66926,15.5054 -3.67084,4.49289 -10.5023,8.48971 -20.5085,11.6645 -10.1621,3.16061 -26.8298,5.00312 -50.1587,5.3291z"
   id="glyph356" />
   <glyph
   unicode="¶"
   horiz-adv-x="537"
   d="M197.007 -199.005l0 510.998c-60.8453,3.34486 -108.836,23.003 -144.169,59.3429 -35.1777,36.1699 -52.8375,82.5018 -52.8375,138.826 0,62.6736 19.6723,112.676 58.8327,150.009 39.1604,37.162 96.6608,55.828 172.161,55.828l309.003 0 0 -84.0042 -70.0011 0 0 -830.999 -82.9979 0 0 830.999 -108.991 0 0 -830.999 -80.9995 0z"
   id="glyph358" />
   <glyph
   unicode="¥"
   horiz-adv-x="556"
   d="M233.006 0l0 160.001 -202.01 0 0 66.9964 202.01 0 0 70.0011 -202.01 0 0 71.9995 165.33 0 -197.333 347.001 98.0073 0 140.668 -252.168c15.6613,-28.8282 28.162,-53.8296 37.332,-74.9901 8.16373,16.6534 21.8266,42.9871 40.8328,78.9869l133.171 248.172 103.988 0 -196.666 -347.001 165.67 0 0 -71.9995 -201.003 0 0 -70.0011 201.003 0 0 -66.9964 -201.003 0 0 -160.001 -87.9868 0z"
   id="glyph360" />
   <glyph
   unicode=""
   horiz-adv-x="750"
   d="M125.007 0l0 625.007 500 0 0 -625.007 -500 0zm15.9873 16.0015l468.011 0 0 593.004 -468.011 0 0 -593.004z"
   id="glyph362" />
   <glyph
   unicode=""
   horiz-adv-x="750"
   d="M125.007 0l0 625.007 500 0 0 -625.007 -500 0zm15.9873 16.0015l468.011 0 0 593.004 -468.011 0 0 -593.004z"
   id="glyph364" />
   <glyph
   unicode="r"
   horiz-adv-x="332"
   d="M64.998 0l0 519.006 79.0011 0 0 -79.5113c20.1684,36.836 38.8344,61.1713 55.9981,72.8358 17.1637,11.8346 35.9998,17.6739 56.5083,17.6739 29.6644,0 59.8248,-9.3401 90.4955,-27.836l-31.3368 -81.1696c-21.3306,12.0046 -42.6611,17.9999 -63.9917,17.9999 -19.1763,0 -36.3399,-5.82516 -51.5052,-17.3337 -15.1653,-11.4944 -25.9935,-27.4959 -32.499,-48.0044 -9.83616,-31.1667 -14.6692,-65.324 -14.6692,-102.5l0 -271.16 -88.001 0z"
   id="glyph366" />
   <glyph
   unicode="a"
   horiz-adv-x="556"
   d="M404.997 64.998c-32.6691,-27.836 -64.1618,-47.3383 -94.3364,-58.8327 -30.1604,-11.4944 -62.4894,-17.1637 -97.1569,-17.1637 -57.0044,0 -100.842,13.833 -131.498,41.669 -30.6707,27.666 -46.006,63.1697 -46.006,106.327 0,25.3416 5.83933,48.5005 17.3337,69.5051 11.6645,20.9904 26.8298,37.658 45.4958,50.3288 18.8361,12.6708 39.8407,22.3369 63.3398,28.8282 17.3337,4.50706 43.4974,8.84404 78.3349,13.1668 70.9933,8.33381 123.491,18.5101 156.996,30.1746 0.340155,12.0046 0.49606,19.6723 0.49606,22.8329 0,35.6596 -8.33381,60.8311 -25.0014,75.5003 -22.4928,19.8282 -55.9981,29.6644 -100.332,29.6644 -41.499,0 -72.1696,-7.32751 -91.8278,-21.8266 -19.8282,-14.4991 -34.3415,-40.1667 -43.8375,-77.1727l-86.0026 12.0046c7.83775,36.836 20.6786,66.6563 38.6785,89.3333 17.9999,22.6628 43.9934,39.9966 77.9948,52.3272 33.8313,12.1747 73.3318,18.34 117.991,18.34 44.3336,0 80.5034,-5.1732 108.339,-15.6755 27.666,-10.5023 48.1745,-23.4991 61.1713,-39.3305 12.9968,-15.8314 22.1668,-35.8297 27.4959,-59.9949 2.83463,-15.0094 4.33698,-42.0092 4.33698,-80.8436l0 -116.659c0,-81.4955 1.82833,-133.001 5.49918,-154.827 3.50077,-21.8408 10.8283,-42.6753 21.5007,-62.6736l-91.9978 0c-8.84404,18.4959 -14.4991,40.1667 -17.0078,64.998zm-7.00153 195.008c-32.0029,-13.0109 -79.9932,-24.0093 -143.999,-33.0092 -36.3258,-5.15902 -61.9933,-10.9984 -77.0027,-17.5038 -14.9952,-6.4913 -26.4896,-15.9873 -34.6675,-28.3321 -8.16373,-12.5007 -12.3306,-26.3337 -12.3306,-41.6549 0,-23.1731 8.84404,-42.6753 26.6738,-58.1666 17.8298,-15.5054 43.8233,-23.3432 77.9948,-23.3432 33.8313,0 64.0059,7.34169 90.4955,22.1668 26.3337,14.6692 45.8359,34.8376 58.1666,60.3351 9.51018,19.8282 14.1731,48.9965 14.1731,87.505l0.49606 32.0029z"
   id="glyph368" />
   <glyph
   unicode="P"
   horiz-adv-x="667"
   d="M77.0027 0l0 715.999 270.324 0c47.5084,0 83.8341,-2.33857 109.006,-6.83145 35.1636,-5.83933 64.672,-16.9936 88.4971,-33.3352 23.8392,-16.4975 43.0013,-39.5005 57.5004,-68.9948 14.4991,-29.5085 21.6707,-62.0075 21.6707,-97.497 0,-60.6752 -19.3322,-112.18 -58.1666,-154.175 -38.6643,-42.1651 -108.836,-63.1697 -210.173,-63.1697l-183.656 0 0 -291.995 -95.0026 0zm95.0026 375.999l184.988 0c61.3413,0 104.669,11.3385 130.506,34.1714 25.6676,22.8329 38.4942,54.8359 38.4942,96.3348 0,29.8345 -7.49759,55.4878 -22.6628,76.8326 -15.1653,21.3306 -35.1636,35.4895 -59.8248,42.3352 -16.0015,4.1669 -45.5099,6.32122 -88.3412,6.32122l-183.159 0 0 -255.995z"
   id="glyph370" />
   <glyph
   unicode="?"
   horiz-adv-x="556"
   d="M230.994 176.002c-0.325982,11.6645 -0.49606,20.4944 -0.49606,26.3337 0,34.4974 4.83304,64.1618 14.6692,89.1632 7.17161,19.0062 18.666,37.9982 34.6675,57.1744 11.6645,13.9889 32.8392,34.3273 63.1697,61.1571 30.5006,26.8298 50.1587,48.1745 59.3288,64.176 9.17002,16.1574 13.6629,33.4911 13.6629,52.4973 0,34.3273 -13.3228,64.502 -39.9966,90.4955 -26.6597,26.0077 -59.3288,39.0045 -97.9931,39.0045 -37.5021,0 -68.6689,-11.8346 -93.6703,-35.3336 -25.1715,-23.6691 -41.499,-60.5051 -49.3367,-110.664l-89.9994 10.9984c8.16373,66.8264 32.173,118.161 72.3397,153.665 40.1667,35.5037 93.16,53.3335 159.164,53.3335 69.8311,0 125.503,-19.0062 167.158,-57.1744 41.499,-38.1683 62.3335,-84.3302 62.3335,-138.5 0,-31.3226 -7.32751,-60.165 -21.9967,-86.4987 -14.6692,-26.5038 -43.3273,-58.4925 -86.0026,-96.3348 -28.6581,-25.3274 -47.3241,-43.9934 -56.1682,-55.9981 -8.82987,-11.9905 -15.3212,-25.8376 -19.4881,-41.499 -4.1669,-15.5054 -6.67555,-40.8328 -7.34169,-75.9964l-84.0042 0zm-15.9873 -176.002l0 100.006 99.9915 0 0 -100.006 -99.9915 0z"
   id="glyph372" />
   <glyph
   unicode="."
   horiz-adv-x="277"
   d="M91.0057 0l0 100.006 99.9915 0 0 -100.006 -99.9915 0z"
   id="glyph374" />
   <glyph
   unicode="÷"
   horiz-adv-x="548"
   d="M224.006 449.997l0 100.006 99.9915 0 0 -100.006 -99.9915 0zm286.992 -138.004l-473 0 0 82.0058 473 0 0 -82.0058zm-286.992 -155.99l0 99.9915 99.9915 0 0 -99.9915 -99.9915 0z"
   id="glyph376" />
   <glyph
   unicode="æ"
   horiz-adv-x="889"
   d="M845.995 158.994c-16.3275,-54.1556 -43.9934,-96.1647 -82.9979,-125.659 -38.9903,-29.5085 -87.4908,-44.3336 -145.331,-44.3336 -41.3289,0 -77.4987,7.83775 -108.665,23.4991 -30.9967,15.5054 -59.1729,39.9966 -84.1601,73.1617 -33.8455,-33.1651 -68.0027,-57.6563 -102.67,-73.1617 -34.6675,-15.6613 -71.9995,-23.4991 -111.996,-23.4991 -56.0122,0 -99.5096,14.329 -130.506,43.0013 -31.1667,28.6581 -46.6721,63.6657 -46.6721,104.825 0,27.836 8.00782,53.9997 24.0093,78.505 16.1574,24.5054 38.4942,43.0013 67.1665,55.6721 28.6581,12.6566 74.494,22.9888 137.324,31.1667 48.6706,6.4913 89.5034,14.4991 122.513,23.825 0.325982,8.16373 0.49606,14.8393 0.49606,19.9983 0,41.173 -8.50388,69.8452 -25.4975,86.3428 -17.0078,16.4975 -46.8422,24.6613 -89.3333,24.6613 -28.1762,0 -52.0012,-3.33069 -71.5035,-10.1621 -19.5022,-6.83145 -33.8313,-16.4975 -43.0013,-28.9982 -9.3401,-12.5007 -17.0078,-32.499 -23.1731,-60.165l-84.9963 10.3322c9.17002,37.9982 22.1668,68.1586 39.3305,90.4955 17.0078,22.3369 41.499,39.8265 73.5019,52.4973 31.8329,12.6708 69.009,19.0062 111.67,19.0062 54.3256,0 98.1632,-8.1779 131.328,-24.5054 19.1763,-9.32593 35.3336,-24.5054 48.3446,-45.3257 20.8203,22.8329 44.4895,40.1667 70.8232,51.9871 26.3337,11.8346 58.1666,17.844 95.6687,17.844 52.6674,0 96.3348,-12.8409 130.832,-38.3383 34.4974,-25.4975 59.6689,-59.1729 75.6704,-101.168 15.8314,-41.8249 23.825,-83.168 23.825,-123.831 0,-6.16532 -0.325982,-16.0015 -0.99212,-29.6644l-375.007 0c0.666138,-46.8422 6.50547,-80.8436 17.3337,-101.834 11.0125,-21.1747 28.3321,-38.8344 52.3414,-53.0075 23.9951,-14.159 50.1587,-21.1605 78.831,-21.1605 33.6612,0 61.9933,9.66608 85.3365,28.8282 23.329,19.1763 39.3305,46.1761 48.1603,80.8436l91.9978 -11.6787zm-374.001 150.009l286 0c-4.49289,51.3351 -19.3322,88.8372 -43.9934,112.492 -24.8313,23.6691 -57.1603,35.5037 -97.001,35.5037 -41.173,0 -74.8342,-12.9968 -101.168,-39.0045 -26.3337,-25.8235 -40.8328,-62.3335 -43.8375,-108.991zm-85.9884 -48.9965c-25.6676,-11.0125 -77.8389,-22.8329 -156.84,-35.5037 -35.3336,-5.49918 -60.165,-13.833 -74.494,-24.8313 -19.1763,-15.3353 -28.6723,-35.1777 -28.6723,-59.839 0,-23.1589 8.67396,-42.5052 25.8376,-58.1666 17.1637,-15.8314 42.1651,-23.6691 74.9901,-23.6691 37.3462,0 69.8452,9.17002 97.5112,27.666 27.8219,18.5101 45.9918,41.669 54.3256,69.1649 4.83304,16.8377 7.34169,52.0012 7.34169,105.179z"
   id="glyph378" />
   <glyph
   unicode="Õ"
   horiz-adv-x="777"
   d="M48.0044 348.503c0,118.658 31.9888,211.662 95.8246,278.828 63.8358,67.1665 146.168,100.672 247.165,100.672 66.1744,0 125.673,-15.8314 178.837,-47.3383 53.0075,-31.4927 93.5002,-75.5003 121.336,-131.994 27.836,-56.3382 41.8391,-120.344 41.8391,-191.833 0,-72.5098 -14.6692,-137.508 -44.0076,-194.668 -29.3384,-57.3303 -70.8373,-100.672 -124.497,-129.996 -53.8296,-29.5085 -111.84,-44.1777 -174.004,-44.1777 -67.4925,0 -127.672,16.3416 -180.835,48.8406 -52.9934,32.499 -93.3301,76.8326 -120.67,133.171 -27.3258,56.154 -40.9887,115.653 -40.9887,178.497zm97.9931 -1.67243c0,-86.1585 23.1731,-153.991 69.5051,-203.498 46.332,-49.4926 104.499,-74.3381 174.5,-74.3381 71.3334,0 129.826,25.0014 176.002,75.0043 45.9918,50.0028 68.9948,120.996 68.9948,212.994 0,58.1666 -9.83616,109.006 -29.4943,152.347 -19.6723,43.3273 -48.5005,76.9885 -86.3428,100.828 -37.9982,23.8392 -80.4893,35.8297 -127.657,35.8297 -67.0106,0 -124.667,-23.003 -173.012,-68.9948 -48.3304,-46.006 -72.4956,-122.669 -72.4956,-230.172zm80.0074 412.169c-0.340155,33.5053 8.99994,60.165 27.8219,80.1633 18.5101,19.8424 42.3352,29.8345 71.3334,29.8345 20.1684,0 47.6784,-8.50388 82.3459,-25.6676 19.1621,-9.496 34.4974,-14.329 45.8218,-14.329 10.5023,0 18.5101,2.83463 24.0093,8.50388 5.49918,5.49918 9.32593,16.8235 11.6645,33.4911l62.9996 0c-1.00629,-36.9919 -10.3322,-64.6579 -28.0061,-83.168 -17.6597,-18.4959 -39.9966,-27.8219 -67.3224,-27.8219 -20.3385,0 -47.3383,9.15585 -80.6735,27.3258 -21.8266,11.8346 -37.8281,17.6739 -48.0044,17.6739 -10.9984,0 -19.9983,-3.84092 -26.6597,-11.6787 -7.17161,-7.66767 -10.6724,-19.1621 -10.3322,-34.3273l-64.998 0z"
   id="glyph380" />
   <glyph
   unicode="Ä"
   horiz-adv-x="667"
   d="M-1.50235 0l274.675 715.999 104.158 0 291.499 -715.999 -107.829 0 -82.8278 217.005 -301.505 0 -77.6688 -217.005 -100.502 0zm206.007 293.993l243.991 0 -74.6641 198.509c-22.4928,60.3351 -39.5005,110.168 -51.3351,149.498 -9.82199,-46.6721 -22.9888,-92.4939 -39.5005,-137.834l-78.4908 -210.173zm-15.5054 466.013l0 99.9915 91.9978 0 0 -99.9915 -91.9978 0zm181.997 0l0 99.9915 91.9978 0 0 -99.9915 -91.9978 0z"
   id="glyph382" />
   <glyph
   unicode="³"
   horiz-adv-x="332"
   d="M16.0015 455l70.9933 7.00153c6.50547,-19.3322 15.0094,-32.499 25.5117,-39.5005 13.9889,-9.66608 30.5006,-14.4991 49.8328,-14.4991 22.9888,0 41.6549,6.33539 55.6579,18.992 14.0031,12.6708 21.0046,28.0061 21.0046,45.8359 0,16.3416 -5.83933,29.3384 -17.5038,39.0045 -11.6645,9.83616 -31.4927,14.6692 -59.8248,14.6692 -3.84092,0 -9.17002,-0.340155 -16.0015,-1.00629 -4.50706,-0.325982 -8.00782,-0.49606 -10.6724,-0.49606l10.8283 53.9997c26.3337,-0.340155 45.6659,4.33698 57.8406,14.0031 12.1606,9.66608 18.3259,21.3306 18.3259,35.1636 0,11.8346 -4.83304,21.9967 -14.655,30.3305 -9.83616,8.33381 -24.3353,12.5007 -43.6674,12.5007 -18.34,0 -32.6691,-3.67084 -43.0013,-10.8283 -10.1763,-7.17161 -19.1763,-20.1684 -26.6738,-39.1746l-70.0011 10.9984c13.3369,34.6675 30.1746,58.6768 50.4989,72.5098 20.3385,13.6629 50.1729,20.4944 89.1774,20.4944 46.8281,0 80.9995,-8.65979 102.33,-25.8376 21.3306,-17.3337 32.0029,-38.8344 32.0029,-64.8279 0,-17.6597 -5.66926,-33.5053 -17.1778,-47.3383 -11.4944,-13.9889 -28.162,-23.9951 -49.8328,-30.1604 28.8423,-7.17161 50.0028,-19.0062 63.6799,-35.5037 13.4928,-16.4975 20.3243,-35.8297 20.3243,-57.9965 0,-30.5006 -12.8267,-57.0044 -38.4942,-79.4971 -25.6676,-22.5069 -62.3335,-33.8313 -109.842,-33.8313 -45.4958,0 -80.3334,8.99994 -104.328,27.1557 -23.9951,18.17 -39.5005,44.1777 -46.332,77.8389z"
   id="glyph384" />
   <glyph
   unicode="¢"
   horiz-adv-x="556"
   d="M363.173 435.994l-109.006 -373.491c10.8283,-3.00471 20.8345,-4.50706 30.0045,-4.50706 34.1573,0 63.6657,11.5086 88.327,34.6675 24.8313,23.1731 39.9966,55.6721 45.4958,97.3411l87.0089 -10.0062c-10.8425,-60.3351 -36.3399,-107.659 -76.6767,-142.171 -40.3226,-34.4974 -87.9868,-51.8312 -142.823,-51.8312 -16.0015,0 -32.8392,2.33857 -50.4989,7.17161l-57.3445 -192.84 -54.6658 15.5054 56.6784 194.172c-37.5021,17.8298 -68.1728,47.6643 -92.012,89.4892 -23.825,41.669 -35.6596,94.0104 -35.6596,156.84 0,57.8264 9.496,107.503 28.5022,149.002 18.992,41.499 47.4942,72.6657 85.3365,93.5002 37.9982,20.8345 76.4924,31.1667 115.993,31.1667 11.6645,0 27.836,-1.00629 48.6706,-3.00471l55.3319 189.339 54.4957 -16.0015 -55.1619 -188.999c32.3289,-14.0031 57.1603,-32.8392 74.3239,-56.6784 17.3337,-23.655 29.5085,-53.3335 36.3399,-88.9931l-85.1664 -13.1668c-8.65979,36.3399 -24.3353,64.1618 -47.4942,83.494zm-52.6674 22.0109c-10.5023,1.33228 -18.5101,1.99841 -24.5054,1.99841 -26.5038,0 -51.5052,-7.34169 -74.6641,-22.1668 -23.1731,-14.8393 -40.5068,-37.6722 -52.0012,-68.8389 -11.4944,-30.9967 -17.3337,-66.9964 -17.3337,-107.999 0,-42.8312 5.15902,-79.1712 15.6613,-108.665 10.3322,-29.4943 25.1715,-51.5052 44.3336,-65.8342l108.51 371.506z"
   id="glyph386" />
   <glyph
   unicode=""
   horiz-adv-x="750"
   d="M125.007 0l0 625.007 500 0 0 -625.007 -500 0zm15.9873 16.0015l468.011 0 0 593.004 -468.011 0 0 -593.004z"
   id="glyph388" />
   <glyph
   unicode=""
   horiz-adv-x="750"
   d="M125.007 0l0 625.007 500 0 0 -625.007 -500 0zm15.9873 16.0015l468.011 0 0 593.004 -468.011 0 0 -593.004z"
   id="glyph390" />
   <glyph
   unicode="o"
   horiz-adv-x="556"
   d="M32.9951 259.496c0,95.8388 26.6738,166.832 80.1774,213.008 44.4895,38.3242 98.9994,57.5004 163.161,57.5004 71.1633,0 129.5,-23.3432 174.84,-70.0011 45.1556,-46.5021 67.8326,-111.004 67.8326,-193.166 0,-66.6704 -10.0062,-118.998 -30.0045,-157.166 -19.9983,-38.1683 -49.1666,-67.8326 -87.505,-89.0073 -38.1683,-21.1605 -79.9932,-31.6628 -125.163,-31.6628 -72.6657,0 -131.328,23.1589 -176.172,69.661 -44.8296,46.5021 -67.1665,113.498 -67.1665,200.833zm89.9994 -0.155905c0,-66.3445 14.4991,-116.007 43.5115,-148.846 29.1541,-32.9951 65.6642,-49.4926 109.828,-49.4926 43.6674,0 79.9932,16.4975 109.162,49.6627 28.9982,33.1651 43.5115,83.664 43.5115,151.497 0,64.0059 -14.6692,112.506 -43.8375,145.346 -29.1683,32.9951 -65.5082,49.4926 -108.836,49.4926 -44.1635,0 -80.6735,-16.3275 -109.828,-49.1666 -29.0124,-32.825 -43.5115,-82.3318 -43.5115,-148.492z"
   id="glyph392" />
   <glyph
   unicode="^"
   horiz-adv-x="469"
   d="M116.673 336.995l-90.0136 0 172.005 391.009 71.0074 0 172.997 -391.009 -88.001 0 -120.67 291.003 -117.325 -291.003z"
   id="glyph394" />
   <glyph
   unicode="M"
   horiz-adv-x="832"
   d="M75.0043 0l0 715.999 142.001 0 169.326 -506.831c15.6755,-47.1682 26.9998,-82.5018 34.1714,-106.001 8.16373,25.9935 20.9904,64.3319 38.3242,114.831l172.345 498.002 126.821 0 0 -715.999 -90.9916 0 0 598.999 -208.997 -598.999 -85.3365 0 -206.673 609.998 0 -609.998 -90.9916 0z"
   id="glyph396" />
   <glyph
   unicode="&lt;"
   horiz-adv-x="584"
   d="M55.9981 313l0 82.0058 472.008 199.997 0 -88.001 -374.001 -153.495 374.001 -155.508 0 -88.001 -472.008 203.002z"
   id="glyph398" />
   <glyph
   unicode="+"
   horiz-adv-x="584"
   d="M251.006 115.993l0 196 -195.008 0 0 82.0058 195.008 0 0 194.994 82.9979 0 0 -194.994 194.994 0 0 -82.0058 -194.994 0 0 -196 -82.9979 0z"
   id="glyph400" />
   <glyph
   unicode="ô"
   horiz-adv-x="556"
   d="M32.9951 259.496c0,95.8388 26.6738,166.832 80.1774,213.008 44.4895,38.3242 98.9994,57.5004 163.161,57.5004 71.1633,0 129.5,-23.3432 174.84,-70.0011 45.1556,-46.5021 67.8326,-111.004 67.8326,-193.166 0,-66.6704 -10.0062,-118.998 -30.0045,-157.166 -19.9983,-38.1683 -49.1666,-67.8326 -87.505,-89.0073 -38.1683,-21.1605 -79.9932,-31.6628 -125.163,-31.6628 -72.6657,0 -131.328,23.1589 -176.172,69.661 -44.8296,46.5021 -67.1665,113.498 -67.1665,200.833zm89.9994 -0.155905c0,-66.3445 14.4991,-116.007 43.5115,-148.846 29.1541,-32.9951 65.6642,-49.4926 109.828,-49.4926 43.6674,0 79.9932,16.4975 109.162,49.6627 28.9982,33.1651 43.5115,83.664 43.5115,151.497 0,64.0059 -14.6692,112.506 -43.8375,145.346 -29.1683,32.9951 -65.5082,49.4926 -108.836,49.4926 -44.1635,0 -80.6735,-16.3275 -109.828,-49.1666 -29.0124,-32.825 -43.5115,-82.3318 -43.5115,-148.492zm152.999 406.656l-54.4957 -82.9979 -99.9915 0 104.499 136.998 92.99 0 111.5 -136.998 -99.9915 0 -54.5099 82.9979z"
   id="glyph402" />
   <glyph
   unicode="ã"
   horiz-adv-x="556"
   d="M404.997 64.998c-32.6691,-27.836 -64.1618,-47.3383 -94.3364,-58.8327 -30.1604,-11.4944 -62.4894,-17.1637 -97.1569,-17.1637 -57.0044,0 -100.842,13.833 -131.498,41.669 -30.6707,27.666 -46.006,63.1697 -46.006,106.327 0,25.3416 5.83933,48.5005 17.3337,69.5051 11.6645,20.9904 26.8298,37.658 45.4958,50.3288 18.8361,12.6708 39.8407,22.3369 63.3398,28.8282 17.3337,4.50706 43.4974,8.84404 78.3349,13.1668 70.9933,8.33381 123.491,18.5101 156.996,30.1746 0.340155,12.0046 0.49606,19.6723 0.49606,22.8329 0,35.6596 -8.33381,60.8311 -25.0014,75.5003 -22.4928,19.8282 -55.9981,29.6644 -100.332,29.6644 -41.499,0 -72.1696,-7.32751 -91.8278,-21.8266 -19.8282,-14.4991 -34.3415,-40.1667 -43.8375,-77.1727l-86.0026 12.0046c7.83775,36.836 20.6786,66.6563 38.6785,89.3333 17.9999,22.6628 43.9934,39.9966 77.9948,52.3272 33.8313,12.1747 73.3318,18.34 117.991,18.34 44.3336,0 80.5034,-5.1732 108.339,-15.6755 27.666,-10.5023 48.1745,-23.4991 61.1713,-39.3305 12.9968,-15.8314 22.1668,-35.8297 27.4959,-59.9949 2.83463,-15.0094 4.33698,-42.0092 4.33698,-80.8436l0 -116.659c0,-81.4955 1.82833,-133.001 5.49918,-154.827 3.50077,-21.8408 10.8283,-42.6753 21.5007,-62.6736l-91.9978 0c-8.84404,18.4959 -14.4991,40.1667 -17.0078,64.998zm-7.00153 195.008c-32.0029,-13.0109 -79.9932,-24.0093 -143.999,-33.0092 -36.3258,-5.15902 -61.9933,-10.9984 -77.0027,-17.5038 -14.9952,-6.4913 -26.4896,-15.9873 -34.6675,-28.3321 -8.16373,-12.5007 -12.3306,-26.3337 -12.3306,-41.6549 0,-23.1731 8.84404,-42.6753 26.6738,-58.1666 17.8298,-15.5054 43.8233,-23.3432 77.9948,-23.3432 33.8313,0 64.0059,7.34169 90.4955,22.1668 26.3337,14.6692 45.8359,34.8376 58.1666,60.3351 9.51018,19.8282 14.1731,48.9965 14.1731,87.505l0.49606 32.0029zm-286 322c-0.325982,33.4911 8.99994,60.165 27.836,80.1633 18.4959,19.8282 42.3352,29.8345 71.3334,29.8345 20.1684,0 47.6643,-8.50388 82.3318,-25.6676 19.1763,-9.496 34.4974,-14.329 45.8359,-14.329 10.5023,0 18.4959,2.82045 23.9951,8.48971 5.49918,5.49918 9.3401,16.8377 11.6787,33.5053l62.9996 0c-1.00629,-37.0061 -10.3464,-64.672 -28.0061,-83.168 -17.6739,-18.4959 -39.9966,-27.836 -67.3366,-27.836 -20.3243,0 -47.3241,9.17002 -80.6593,27.34 -21.8408,11.8346 -37.8423,17.6597 -48.0044,17.6597 -10.9984,0 -19.9983,-3.82675 -26.6738,-11.6645 -7.15744,-7.66767 -10.6582,-19.1621 -10.3322,-34.3273l-64.998 0z"
   id="glyph404" />
   <glyph
   unicode="Ò"
   horiz-adv-x="777"
   d="M48.0044 348.503c0,118.658 31.9888,211.662 95.8246,278.828 63.8358,67.1665 146.168,100.672 247.165,100.672 66.1744,0 125.673,-15.8314 178.837,-47.3383 53.0075,-31.4927 93.5002,-75.5003 121.336,-131.994 27.836,-56.3382 41.8391,-120.344 41.8391,-191.833 0,-72.5098 -14.6692,-137.508 -44.0076,-194.668 -29.3384,-57.3303 -70.8373,-100.672 -124.497,-129.996 -53.8296,-29.5085 -111.84,-44.1777 -174.004,-44.1777 -67.4925,0 -127.672,16.3416 -180.835,48.8406 -52.9934,32.499 -93.3301,76.8326 -120.67,133.171 -27.3258,56.154 -40.9887,115.653 -40.9887,178.497zm97.9931 -1.67243c0,-86.1585 23.1731,-153.991 69.5051,-203.498 46.332,-49.4926 104.499,-74.3381 174.5,-74.3381 71.3334,0 129.826,25.0014 176.002,75.0043 45.9918,50.0028 68.9948,120.996 68.9948,212.994 0,58.1666 -9.83616,109.006 -29.4943,152.347 -19.6723,43.3273 -48.5005,76.9885 -86.3428,100.828 -37.9982,23.8392 -80.4893,35.8297 -127.657,35.8297 -67.0106,0 -124.667,-23.003 -173.012,-68.9948 -48.3304,-46.006 -72.4956,-122.669 -72.4956,-230.172zm316.004 413.175l-71.0074 0 -112.988 136.998 117.991 0 66.0043 -136.998z"
   id="glyph406" />
   <glyph
   unicode="Á"
   horiz-adv-x="667"
   d="M-1.50235 0l274.675 715.999 104.158 0 291.499 -715.999 -107.829 0 -82.8278 217.005 -301.505 0 -77.6688 -217.005 -100.502 0zm206.007 293.993l243.991 0 -74.6641 198.509c-22.4928,60.3351 -39.5005,110.168 -51.3351,149.498 -9.82199,-46.6721 -22.9888,-92.4939 -39.5005,-137.834l-78.4908 -210.173zm45.4958 466.013l64.0059 136.998 115.993 0 -106.993 -136.998 -73.0058 0z"
   id="glyph408" />
   <glyph
   unicode="°"
   horiz-adv-x="399"
   d="M61.9933 592.834c0,37.332 13.3369,69.1649 39.8407,95.6687 26.5038,26.3337 58.3366,39.5005 95.4986,39.5005 37.6722,0 69.661,-13.1668 96.1647,-39.5005 26.3337,-26.5038 39.5005,-58.3366 39.5005,-95.6687 0,-37.5021 -13.3369,-69.5051 -39.8265,-95.9947 -26.5038,-26.5038 -58.5067,-39.8407 -95.8388,-39.8407 -37.162,0 -68.9948,13.1668 -95.4986,39.5005 -26.5038,26.5038 -39.8407,58.5067 -39.8407,96.3348zm53.0075 -0.340155c0,-22.8329 7.99365,-42.1651 24.1652,-58.3225 16.1716,-16.1716 35.6738,-24.1652 58.6626,-24.1652 22.5069,0 41.8391,7.99365 58.0107,24.1652 16.1574,16.1574 24.1652,35.4895 24.1652,58.3225 0,22.8329 -8.00782,42.1793 -24.1652,58.3366 -16.1716,16.1716 -35.5037,24.1652 -58.0107,24.1652 -22.9888,0 -42.4911,-7.99365 -58.6626,-24.1652 -16.1716,-16.1574 -24.1652,-35.5037 -24.1652,-58.3366z"
   id="glyph410" />
   <glyph
   unicode=""
   horiz-adv-x="750"
   d="M125.007 0l0 625.007 500 0 0 -625.007 -500 0zm15.9873 16.0015l468.011 0 0 593.004 -468.011 0 0 -593.004z"
   id="glyph412" />
   <glyph
   unicode=""
   horiz-adv-x="750"
   d="M125.007 0l0 625.007 500 0 0 -625.007 -500 0zm15.9873 16.0015l468.011 0 0 593.004 -468.011 0 0 -593.004z"
   id="glyph414" />
   <glyph
   unicode="}"
   horiz-adv-x="334"
   d="M305.998 298.997l0 -79.9932c-25.1715,-0.666138 -45.6659,-7.49759 -61.4973,-20.5085 -15.8314,-12.9968 -26.5038,-30.6565 -31.6628,-52.8233 -5.1732,-22.3369 -8.00782,-60.5051 -8.33381,-114.845 -0.170078,-54.3256 -1.00629,-89.9994 -2.50865,-107.333 -2.99053,-27.4959 -8.33381,-49.4926 -16.3275,-65.9901 -8.00782,-16.3416 -17.8298,-29.5085 -29.6644,-39.5005 -11.6645,-9.83616 -26.6738,-17.5038 -44.9997,-22.6628 -12.3306,-3.50077 -32.499,-5.34327 -60.6752,-5.34327l-27.3258 0 0 77.0027 15.1653 0c33.8313,0 56.1682,6.16532 67.3366,18.34 10.9984,12.1606 16.4975,39.5005 16.4975,81.9916 0,81.3396 1.33228,132.675 3.99683,154.501 5.1732,35.9998 15.6613,64.8279 31.3368,86.4987 15.8314,21.6707 37.9982,38.3383 66.8264,50.4989 -37.8281,17.8298 -64.502,41.499 -79.9932,70.8373 -15.5054,29.4943 -23.1731,79.1712 -23.1731,149.172 0,63.3256 -0.325982,101.324 -0.99212,113.654 -2.33857,21.6707 -8.67396,37.0061 -19.3322,45.5099 -10.6724,8.65979 -31.5069,12.9968 -62.5035,12.9968l-15.1653 0 0 77.0027 27.3258 0c31.8329,0 55.006,-2.66455 69.335,-7.83775 20.8345,-7.17161 37.9982,-19.1621 51.6753,-36.1699 13.6629,-16.8235 22.4928,-38.1683 26.4896,-63.8358 4.1669,-25.6534 6.33539,-67.8326 6.67555,-126.495 0.325982,-58.4925 3.16061,-98.9994 8.33381,-121.166 5.15902,-22.3369 15.8314,-39.9966 31.6628,-52.9934 15.8314,-13.0109 36.3258,-19.8424 61.4973,-20.5085z"
   id="glyph416" />
   <glyph
   unicode="l"
   horiz-adv-x="222"
   d="M64.0059 0l0 715.999 88.001 0 0 -715.999 -88.001 0z"
   id="glyph418" />
   <glyph
   unicode="["
   horiz-adv-x="277"
   d="M68.0027 -199.005l0 915.004 194.002 0 0 -72.9917 -106.001 0 0 -769.006 106.001 0 0 -73.0058 -194.002 0z"
   id="glyph420" />
   <glyph
   unicode="J"
   horiz-adv-x="500"
   d="M28.9982 203.328l84.9963 11.6787c2.33857,-54.8359 12.5007,-92.338 30.6707,-112.676 18.17,-20.1684 43.4974,-30.3305 75.6704,-30.3305 23.6691,0 44.1635,5.49918 61.3272,16.3275 17.1637,11.0125 29.1683,25.8376 35.6738,44.5037 6.4913,18.666 9.66608,48.6706 9.66608,89.6735l0 493.495 95.0026 0 0 -487.825c0,-59.839 -7.17161,-106.171 -21.6707,-139.18 -14.4991,-32.825 -37.332,-57.8264 -68.8389,-75.1602 -31.3226,-17.1637 -68.1586,-25.8376 -110.324,-25.8376 -62.8437,0 -110.834,17.9999 -144.169,54.1697 -33.3352,36.1699 -49.3367,89.8294 -48.0044,161.163z"
   id="glyph422" />
   <glyph
   unicode="9"
   horiz-adv-x="556"
   d="M55.006 165.996l83.99 7.00153c7.17161,-39.6706 20.8345,-68.3287 41.0029,-86.1585 20.1684,-17.844 46.006,-26.8439 77.6688,-26.8439 26.9998,0 50.669,6.16532 71.1633,18.666 20.5085,12.3448 37.162,28.8423 50.0028,49.6769 12.8267,20.6644 23.6691,48.6564 32.499,83.8341 8.82987,35.1636 13.1668,70.9933 13.1668,107.489 0,3.84092 -0.170078,9.83616 -0.49606,17.6739 -17.5038,-28.0061 -41.499,-50.839 -71.8436,-68.1728 -30.3305,-17.4897 -63.3256,-26.1636 -98.6592,-26.1636 -59.1729,0 -109.162,21.5007 -150.164,64.502 -40.8328,42.8312 -61.3413,99.4954 -61.3413,169.837 0,72.6657 21.3447,131.002 64.176,175.336 42.6611,44.1635 96.1647,66.3303 160.667,66.3303 46.332,0 88.8231,-12.5007 127.502,-37.6722 38.4942,-25.0014 67.6626,-60.661 87.6609,-107.163 19.9983,-46.332 30.0045,-113.498 30.0045,-201.329 0,-91.5018 -9.83616,-164.338 -29.6644,-218.507 -19.8424,-54.3256 -49.5068,-95.4986 -88.6672,-123.831 -39.1746,-28.3321 -85.0105,-42.5052 -137.678,-42.5052 -55.9981,0 -101.664,15.5054 -137.168,46.6721 -35.3336,31.1667 -56.6642,75.0043 -63.8216,131.328zm358.991 315.834c0,50.343 -13.3369,90.3396 -39.9966,119.834 -26.5038,29.5085 -58.8327,44.3336 -96.8309,44.3336 -39.3305,0 -73.3318,-15.8314 -102.004,-47.6643 -28.8282,-31.8329 -43.1714,-73.1617 -43.1714,-123.831 0,-45.4958 13.6771,-82.5018 40.8328,-110.834 27.34,-28.5022 61.3413,-42.6753 101.834,-42.6753 40.6769,0 74.0121,14.1731 100.176,42.6753 26.1636,28.3321 39.1604,67.8326 39.1604,118.161z"
   id="glyph424" />
   <glyph
   unicode="("
   horiz-adv-x="332"
   d="M233.999 -210.003c-48.3304,61.1713 -89.3333,132.675 -122.839,214.666 -33.4911,82.0058 -50.1587,167.002 -50.1587,254.833 0,77.4987 12.5007,151.667 37.5021,222.504 29.3242,82.3318 74.494,164.338 135.495,246.003l62.9996 0c-39.3305,-67.6767 -65.4941,-116.007 -78.1649,-145.005 -19.8282,-44.8296 -35.5037,-91.6577 -46.8281,-140.498 -14.0031,-60.8311 -21.0046,-122.002 -21.0046,-183.5 0,-156.5 48.6706,-312.83 145.998,-469.003l-62.9996 0z"
   id="glyph426" />
   <glyph
   unicode="ñ"
   horiz-adv-x="556"
   d="M66.0043 0l0 519.006 79.0011 0 0 -73.672c37.9982,56.4941 92.99,84.6703 164.834,84.6703 31.3226,0 59.9949,-5.66926 86.1585,-16.8377 26.1636,-11.1684 45.8359,-25.9935 58.8327,-44.1635 12.9968,-18.17 22.1668,-39.8407 27.34,-64.8421 3.16061,-16.3275 4.83304,-44.8296 4.83304,-85.4924l0 -318.669 -88.001 0 0 315.338c0,35.8297 -3.33069,62.6594 -10.1621,80.3334 -6.84563,17.6597 -19.0062,31.8329 -36.3399,42.4911 -17.3337,10.5023 -37.8281,15.8314 -61.1713,15.8314 -37.332,0 -69.4909,-11.8204 -96.6608,-35.6596 -27.1699,-23.6691 -40.6627,-68.8389 -40.6627,-135.169l0 -283.165 -88.001 0zm61.0012 582.006c-0.340155,33.4911 8.99994,60.165 27.8219,80.1633 18.5101,19.8282 42.3352,29.8345 71.3334,29.8345 20.1684,0 47.6784,-8.50388 82.3459,-25.6676 19.1621,-9.496 34.4974,-14.329 45.8218,-14.329 10.5023,0 18.5101,2.82045 24.0093,8.48971 5.49918,5.49918 9.32593,16.8377 11.6645,33.5053l62.9996 0c-1.00629,-37.0061 -10.3322,-64.672 -28.0061,-83.168 -17.6597,-18.4959 -39.9966,-27.836 -67.3224,-27.836 -20.3385,0 -47.3383,9.17002 -80.6735,27.34 -21.8266,11.8346 -37.8281,17.6597 -48.0044,17.6597 -10.9984,0 -19.9983,-3.82675 -26.6597,-11.6645 -7.17161,-7.66767 -10.6724,-19.1621 -10.3322,-34.3273l-64.998 0z"
   id="glyph428" />
   <glyph
   unicode="à"
   horiz-adv-x="556"
   d="M404.997 64.998c-32.6691,-27.836 -64.1618,-47.3383 -94.3364,-58.8327 -30.1604,-11.4944 -62.4894,-17.1637 -97.1569,-17.1637 -57.0044,0 -100.842,13.833 -131.498,41.669 -30.6707,27.666 -46.006,63.1697 -46.006,106.327 0,25.3416 5.83933,48.5005 17.3337,69.5051 11.6645,20.9904 26.8298,37.658 45.4958,50.3288 18.8361,12.6708 39.8407,22.3369 63.3398,28.8282 17.3337,4.50706 43.4974,8.84404 78.3349,13.1668 70.9933,8.33381 123.491,18.5101 156.996,30.1746 0.340155,12.0046 0.49606,19.6723 0.49606,22.8329 0,35.6596 -8.33381,60.8311 -25.0014,75.5003 -22.4928,19.8282 -55.9981,29.6644 -100.332,29.6644 -41.499,0 -72.1696,-7.32751 -91.8278,-21.8266 -19.8282,-14.4991 -34.3415,-40.1667 -43.8375,-77.1727l-86.0026 12.0046c7.83775,36.836 20.6786,66.6563 38.6785,89.3333 17.9999,22.6628 43.9934,39.9966 77.9948,52.3272 33.8313,12.1747 73.3318,18.34 117.991,18.34 44.3336,0 80.5034,-5.1732 108.339,-15.6755 27.666,-10.5023 48.1745,-23.4991 61.1713,-39.3305 12.9968,-15.8314 22.1668,-35.8297 27.4959,-59.9949 2.83463,-15.0094 4.33698,-42.0092 4.33698,-80.8436l0 -116.659c0,-81.4955 1.82833,-133.001 5.49918,-154.827 3.50077,-21.8408 10.8283,-42.6753 21.5007,-62.6736l-91.9978 0c-8.84404,18.4959 -14.4991,40.1667 -17.0078,64.998zm-7.00153 195.008c-32.0029,-13.0109 -79.9932,-24.0093 -143.999,-33.0092 -36.3258,-5.15902 -61.9933,-10.9984 -77.0027,-17.5038 -14.9952,-6.4913 -26.4896,-15.9873 -34.6675,-28.3321 -8.16373,-12.5007 -12.3306,-26.3337 -12.3306,-41.6549 0,-23.1731 8.84404,-42.6753 26.6738,-58.1666 17.8298,-15.5054 43.8233,-23.3432 77.9948,-23.3432 33.8313,0 64.0059,7.34169 90.4955,22.1668 26.3337,14.6692 45.8359,34.8376 58.1666,60.3351 9.51018,19.8282 14.1731,48.9965 14.1731,87.505l0.49606 32.0029zm-35.9998 322.992l-70.9933 0 -113.002 136.998 118.006 0 65.9901 -136.998z"
   id="glyph430" />
   <glyph
   unicode="Ï"
   horiz-adv-x="277"
   d="M93.0041 0l0 715.999 95.0026 0 0 -715.999 -95.0026 0zm-87.0089 760.006l0 99.9915 91.9978 0 0 -99.9915 -91.9978 0zm182.011 0l0 99.9915 91.9978 0 0 -99.9915 -91.9978 0z"
   id="glyph432" />
   <glyph
   unicode="¾"
   horiz-adv-x="834"
   d="M122.995 -28.9982l537.672 757.002 76.6625 0 -537.658 -757.002 -76.6767 0zm-106.993 485.005l70.9933 7.32751c6.50547,-19.5022 15.0094,-32.6691 25.5117,-39.8407 13.9889,-9.66608 30.5006,-14.4991 49.8328,-14.4991 22.9888,0 41.6549,6.33539 55.6579,19.0062 14.0031,12.6708 21.0046,28.0061 21.0046,45.8359 0,16.3275 -5.83933,29.3242 -17.5038,38.9903 -11.6645,9.83616 -31.1667,14.6692 -58.3366,14.6692 -16.1574,-0.99212 -25.4975,-1.50235 -28.162,-1.50235l10.8283 53.9997c26.3337,-0.325982 45.6659,4.33698 57.8406,14.0031 12.1606,9.66608 18.3259,21.3306 18.3259,35.1636 0,11.8346 -4.83304,22.0109 -14.655,30.3447 -9.83616,8.33381 -24.3353,12.5007 -43.6674,12.5007 -18.34,0 -32.6691,-3.67084 -43.0013,-10.9984 -10.1763,-7.34169 -19.1763,-20.6786 -26.6738,-40.0108l-70.0011 12.0046c13.3369,34.6675 30.1746,58.6626 50.4989,72.4956 20.3385,13.6771 50.1729,20.5085 89.1774,20.5085 46.8281,0 80.9995,-8.67396 102.33,-25.8376 21.3306,-17.3337 32.0029,-38.8344 32.0029,-64.8279 0,-17.6739 -5.66926,-33.5053 -17.1778,-47.3383 -11.4944,-14.0031 -28.162,-23.9951 -49.8328,-30.1746 28.8423,-7.15744 50.0028,-18.992 63.6799,-35.4895 13.4928,-16.4975 20.3243,-35.8439 20.3243,-57.9965 0,-30.5006 -12.8267,-57.0044 -38.4942,-79.5113 -25.6676,-22.4928 -62.3335,-33.8313 -109.842,-33.8313 -45.4958,0 -80.3334,8.99994 -104.328,27.1699 -23.9951,18.17 -39.5005,44.1635 -46.332,77.8389zm681.997 -471.002l0 74.9901 -185.994 0 0 60.165 196.822 231.844 60.1791 0 0 -239.002 50.995 0 0 -53.0075 -50.995 0 0 -74.9901 -71.0074 0zm0 127.998l0 128.494 -111.004 -128.494 111.004 0z"
   id="glyph434" />
   <glyph
   unicode="­"
   horiz-adv-x="332"
   d="M30.9967 215.007l0 87.9868 271.997 0 0 -87.9868 -271.997 0z"
   id="glyph436" />
   <glyph
   unicode=""
   horiz-adv-x="750"
   d="M125.007 0l0 625.007 500 0 0 -625.007 -500 0zm15.9873 16.0015l468.011 0 0 593.004 -468.011 0 0 -593.004z"
   id="glyph438" />
   <glyph
   unicode=""
   horiz-adv-x="750"
   d="M125.007 0l0 625.007 500 0 0 -625.007 -500 0zm15.9873 16.0015l468.011 0 0 593.004 -468.011 0 0 -593.004z"
   id="glyph440" />
   <glyph
   unicode="z"
   horiz-adv-x="500"
   d="M19.5022 0l0 71.6736 328.661 379.33c-37.332,-1.99841 -70.157,-3.00471 -98.5033,-3.00471l-210.159 0 0 71.0074 422.997 0 0 -57.8406 -281.337 -329.001 -53.8296 -61.1713c39.5005,3.34486 76.5066,5.00312 111.004,5.00312l240.164 0 0 -75.9964 -458.997 0z"
   id="glyph442" />
   <glyph
   unicode="i"
   horiz-adv-x="222"
   d="M66.0043 615.993l0 100.006 88.001 0 0 -100.006 -88.001 0zm0 -615.993l0 519.006 88.001 0 0 -519.006 -88.001 0z"
   id="glyph444" />
   <glyph
   unicode="X"
   horiz-adv-x="667"
   d="M4.33698 0l276.66 371.506 -243.665 344.492 112.832 0 130.506 -183.159c27.1557,-38.0124 45.9918,-67.0106 56.8343,-87.179 16.1574,25.0014 35.1636,51.6753 56.9902,79.8373l143.007 190.501 103.832 0 -248.668 -340.325 267.66 -375.673 -116.333 0 -180.665 255.329c-10.3322,14.4991 -20.1684,28.9982 -29.3242,43.3415 -16.0015,-24.0093 -27.34,-40.8328 -34.3415,-50.343l-181.501 -248.328 -113.824 0z"
   id="glyph446" />
   <glyph
   unicode="G"
   horiz-adv-x="777"
   d="M411.999 280.997l0 84.0042 303.008 0 0 -265.335c-46.5021,-36.9919 -94.5065,-64.998 -144.013,-83.664 -49.4926,-18.666 -100.332,-28.0061 -152.333,-28.0061 -70.3271,0 -134.163,15.0094 -191.663,45.1698 -57.3303,30.0045 -100.828,73.672 -129.996,130.506 -29.3384,56.9902 -44.0076,120.656 -44.0076,190.827 0,69.6752 14.5133,134.673 43.6674,195.164 29.1683,60.3351 71.0074,105.165 125.673,134.333 54.6658,29.3384 117.665,44.0076 188.999,44.0076 51.6611,0 98.5033,-8.33381 140.328,-25.1715 41.8391,-16.8377 74.6783,-40.1667 98.3332,-70.0011 23.8392,-29.9904 41.8391,-69.1649 54.1697,-117.325l-85.4924 -23.3432c-10.8425,36.3399 -24.1652,64.998 -40.0108,86.0026 -15.9873,20.8345 -38.6643,37.5021 -68.3287,50.0028 -29.4943,12.5007 -62.3335,18.8361 -98.5033,18.8361 -43.1572,0 -80.4893,-6.67555 -112.166,-19.8424 -31.4927,-13.1668 -56.8343,-30.5006 -76.3224,-52.1572 -19.3463,-21.5007 -34.3415,-45.1698 -45.0139,-70.8373 -18.1558,-44.5037 -27.3258,-92.4939 -27.3258,-144.339 0,-63.9917 10.9984,-117.495 32.8392,-160.667 21.9967,-43.0013 53.9997,-74.9901 95.8246,-95.8246 42.0092,-20.8345 86.4987,-31.3368 133.667,-31.3368 41.0029,0 80.9995,7.99365 120.004,23.8392 39.0045,16.0015 68.4988,32.825 88.6672,50.995l0 134.163 -210.003 0z"
   id="glyph448" />
   <glyph
   unicode="6"
   horiz-adv-x="556"
   d="M498.994 541.003l-86.9947 -7.00153c-7.83775,34.4974 -18.992,59.6689 -33.5053,75.3302 -23.825,25.1715 -53.3335,37.6722 -88.327,37.6722 -28.162,0 -53.1634,-7.83775 -74.6641,-23.4991 -27.666,-20.1684 -49.3367,-49.5068 -65.5082,-88.1711 -15.9873,-38.8344 -24.3211,-93.9963 -24.9872,-165.5 21.1605,32.173 47.154,56.1682 77.8247,71.6594 30.6707,15.6755 62.6736,23.5132 96.3348,23.5132 58.6626,0 108.665,-21.6707 149.994,-64.8421 41.173,-43.1714 61.8374,-98.8293 61.8374,-167.328 0,-44.9997 -9.66608,-86.6687 -28.9982,-125.333 -19.5022,-38.6643 -46.006,-68.1728 -79.9932,-88.6672 -33.8455,-20.5085 -72.3397,-30.8408 -115.341,-30.8408 -73.1617,0 -133.001,26.9998 -179.333,80.8436 -46.1619,53.8296 -69.335,142.667 -69.335,266.327 0,138.33 25.6676,239.002 76.8326,301.831 44.6737,54.6658 104.839,82.0058 180.665,82.0058 56.3382,0 102.67,-15.8314 138.67,-47.3383 35.9998,-31.4927 57.6705,-75.0043 64.8279,-130.662zm-359.998 -309.003c0,-30.3305 6.50547,-59.3288 19.3322,-86.9947 12.8409,-27.666 30.8408,-48.6706 53.6737,-63.1697 23.003,-14.4991 47.3383,-21.8408 73.1617,-21.8408 37.5021,0 69.5051,15.0094 96.0088,44.9997 26.4896,30.0045 39.8265,70.6673 39.8265,122.172 0,49.4926 -13.1668,88.4971 -39.3305,116.999 -26.1636,28.5022 -59.4988,42.8312 -100.006,42.8312 -39.6564,0 -73.5019,-14.329 -101.168,-42.8312 -27.666,-28.5022 -41.499,-65.8342 -41.499,-112.166z"
   id="glyph450" />
   <glyph
   unicode="%"
   horiz-adv-x="889"
   d="M57.9965 544.164c0,51.0091 12.8409,94.5065 38.6643,130.166 25.8376,35.8439 63.1697,53.6737 112.166,53.6737 44.9997,0 82.3459,-16.0015 111.84,-48.0044 29.4943,-32.0029 44.3336,-79.1712 44.3336,-141.164 0,-60.5051 -14.9952,-107.163 -44.8296,-139.832 -29.8345,-32.6691 -66.6704,-48.9965 -110.338,-48.9965 -43.4974,0 -79.6672,16.1574 -108.495,48.3304 -28.8423,32.1589 -43.3415,80.8294 -43.3415,145.827zm153.339 122.839c-21.8408,0 -39.9966,-9.3401 -54.4957,-28.162 -14.5133,-18.8361 -21.8408,-53.3335 -21.8408,-103.506 0,-45.6659 7.32751,-77.8389 21.9967,-96.3348 14.6692,-18.666 32.8392,-27.9919 54.3398,-27.9919 22.1668,0 40.4927,9.32593 54.9918,28.162 14.4991,18.8361 21.6707,53.1634 21.6707,102.996 0,46.006 -7.32751,78.3349 -21.9967,96.8309 -14.6692,18.666 -32.8392,28.0061 -54.6658,28.0061zm0.49606 -692.996l390.498 753.997 71.6736 0 -389.506 -753.997 -72.6657 0zm308.167 194.158c0,51.3351 12.8409,94.8325 38.6643,130.506 25.6676,35.4895 63.1697,53.3335 112.336,53.3335 44.9997,0 82.3318,-16.0015 111.84,-48.0044 29.4943,-32.0029 44.1635,-79.1712 44.1635,-141.164 0,-60.5051 -14.8393,-107.163 -44.6737,-139.832 -29.8345,-32.6691 -66.8264,-48.9965 -110.834,-48.9965 -43.3273,0 -79.3271,16.1574 -108.155,48.5005 -28.8423,32.3289 -43.3415,80.9995 -43.3415,145.657zm153.495 122.839c-22.1668,0 -40.3226,-9.3401 -54.8217,-28.1762 -14.4991,-18.8219 -21.6707,-53.3335 -21.6707,-103.492 0,-45.3399 7.32751,-77.3286 21.9967,-96.1647 14.4991,-18.8361 32.499,-28.1762 53.9997,-28.1762 22.5069,0 40.8328,9.3401 55.3319,28.1762 14.4991,18.8361 21.6707,53.1634 21.6707,102.996 0,46.006 -7.32751,78.3349 -21.9967,96.8309 -14.4991,18.666 -32.6691,28.0061 -54.5099,28.0061z"
   id="glyph452" />
  </font>
</defs>
</svg>
