<?xml version="1.0" encoding="UTF-8" standalone="no"?>
<!-- Created with Inkscape (http://www.inkscape.org/) -->
<svg
   xmlns:svg="http://www.w3.org/2000/svg"
   xmlns="http://www.w3.org/2000/svg"
   version="1.0"
   width="1024"
   height="1028"
   viewBox="0 0 1024 1024"
   id="svg2430"
   xml:space="preserve">
 <defs
   id="defs2432">
  <font
   id="FontID0"
   fullFontName="Arial"
   fontVariant="normal"
   fontWeight="400">
	<font-face
   font-family="Arial"
   id="font-face2435">
	</font-face>
   <missing-glyph
   id="missing-glyph2437"><path
     d="M0 0z"
     id="path2439" /></missing-glyph>
   <glyph
   unicode="-"
   horiz-adv-x="328"
   id="glyph2441"><path
     d="M45 227l0 91 273 0 0 -91 -273 0z"
     id="path2443" /></glyph>
   <glyph
   unicode="."
   horiz-adv-x="273"
   id="glyph2445"><path
     d="M90 0l0 90 91 0 0 -90 -91 0z"
     id="path2447" /></glyph>
   <glyph
   unicode=" "
   horiz-adv-x="273"
   id="glyph2449"><path
     d="M409 0"
     id="path2451" /></glyph>
   <glyph
   unicode="A"
   horiz-adv-x="672"
   id="glyph2453"><path
     d="M0 0l279 720 93 0 302 -720 -116 0 -70 209 -302 0 -93 -209 -93 0zm209 302l232 0 -69 186c-24,70 -47,116 -47,163 0,-47 -23,-93 -46,-140l-70 -209z"
     id="path2455" /></glyph>
   <glyph
   unicode="L"
   horiz-adv-x="547"
   id="glyph2457"><path
     d="M90 0l0 727 91 0 0 -637 319 0 0 -90 -410 0z"
     id="path2459" /></glyph>
   <glyph
   unicode="K"
   horiz-adv-x="657"
   id="glyph2461"><path
     d="M90 0l0 727 91 0 0 -364 319 364 136 0 -273 -318 273 -409 -91 0 -273 363 -91 -136 0 -227 -91 0z"
     id="path2463" /></glyph>
   <glyph
   unicode="J"
   horiz-adv-x="492"
   id="glyph2465"><path
     d="M45 181l45 46c46,-91 46,-91 46,-137 45,0 45,0 91,0 0,0 45,0 45,0 0,0 46,0 46,46 0,0 0,45 0,91l0 500 91 0 0 -500c0,-46 0,-91 0,-137 -46,-45 -46,-45 -91,-90 0,0 -46,0 -91,0 -91,0 -137,0 -137,45 -45,45 -45,91 -45,136z"
     id="path2467" /></glyph>
   <glyph
   unicode="N"
   horiz-adv-x="711"
   id="glyph2469"><path
     d="M90 0l0 727 91 0 364 -591 0 591 91 0 0 -727 -91 0 -364 545 0 -545 -91 0z"
     id="path2471" /></glyph>
   <glyph
   unicode="B"
   horiz-adv-x="657"
   id="glyph2473"><path
     d="M90 0l0 727 228 0c91,0 136,-46 136,-46 46,0 91,-45 91,-45 0,-46 45,-91 45,-91 0,-45 -45,-91 -45,-91 0,-45 -45,-45 -91,-91 46,0 91,0 136,-45 0,-46 0,-91 0,-137 0,0 0,-45 0,-91 0,0 -45,-45 -45,-45 -45,0 -45,-45 -91,-45 -45,0 -91,0 -91,0l-273 0zm91 409l137 0c45,0 91,0 91,0 0,0 45,45 45,45 0,0 46,46 46,46 0,45 -46,45 -46,90 0,0 0,0 -45,0 0,46 -46,46 -91,46l-137 0 0 -227zm0 -319l182 0c0,0 46,0 46,0 0,0 45,0 45,0 0,46 46,46 46,46 0,45 0,45 0,45 0,46 0,91 0,91 -46,0 -46,46 -91,46 0,0 -46,0 -91,0l-137 0 0 -228z"
     id="path2475" /></glyph>
   <glyph
   unicode="H"
   horiz-adv-x="711"
   id="glyph2477"><path
     d="M90 0l0 727 91 0 0 -318 364 0 0 318 91 0 0 -727 -91 0 0 318 -364 0 0 -318 -91 0z"
     id="path2479" /></glyph>
   <glyph
   unicode="O"
   horiz-adv-x="784"
   id="glyph2481"><path
     d="M46 348c0,117 23,210 93,279 70,70 163,117 256,117 70,0 116,-24 186,-47 46,-46 93,-93 116,-139 23,-70 47,-117 47,-210 0,-69 -24,-116 -47,-186 -23,-46 -70,-93 -139,-139 -47,-23 -93,-46 -163,-46 -70,0 -140,23 -186,69 -47,23 -93,70 -116,116 -24,70 -47,117 -47,186zm93 0c0,-93 23,-162 70,-209 46,-46 116,-70 186,-70 70,0 139,24 186,70 46,47 70,140 70,209 0,70 -24,117 -47,163 -23,47 -46,70 -70,93 -46,47 -93,47 -139,47 -70,0 -116,-24 -186,-70 -47,-47 -70,-116 -70,-233z"
     id="path2483" /></glyph>
   <glyph
   unicode="M"
   horiz-adv-x="820"
   id="glyph2485"><path
     d="M90 0l0 727 137 0 136 -500c46,-46 46,-91 46,-137 0,46 45,91 45,137l182 500 91 0 0 -727 -91 0 0 590 -182 -590 -91 0 -182 590 0 -590 -91 0z"
     id="path2487" /></glyph>
   <glyph
   unicode="V"
   horiz-adv-x="672"
   id="glyph2489"><path
     d="M279 0l-279 720 116 0 186 -534c0,-24 23,-70 23,-117 23,47 23,93 47,117l186 534 116 0 -302 -720 -93 0z"
     id="path2491" /></glyph>
   <glyph
   unicode="T"
   horiz-adv-x="615"
   id="glyph2493"><path
     d="M255 0l0 627 -232 0 0 93 581 0 0 -93 -256 0 0 -627 -93 0z"
     id="path2495" /></glyph>
   <glyph
   unicode="R"
   horiz-adv-x="728"
   id="glyph2497"><path
     d="M69 0l0 720 326 0c70,0 116,0 139,-23 47,0 70,-23 93,-70 24,-23 24,-69 24,-93 0,-69 0,-93 -47,-139 -23,-47 -93,-47 -163,-70 47,0 47,-23 70,-23 23,-47 47,-70 70,-116l139 -186 -116 0 -116 139c-23,47 -47,93 -47,116 -23,24 -46,24 -69,47 0,0 -24,0 -24,23 -23,0 -46,0 -69,0l-93 0 0 -325 -117 0zm117 395l186 0c46,0 93,23 116,23 23,0 46,23 46,47 24,23 24,46 24,69 0,24 -24,47 -47,70 -23,23 -46,47 -116,47l-209 0 0 -256z"
     id="path2499" /></glyph>
   <glyph
   unicode="S"
   horiz-adv-x="672"
   id="glyph2501"><path
     d="M46 232l93 0c0,-23 0,-70 23,-93 24,-23 47,-23 70,-46 47,-24 70,-24 116,-24 47,0 70,0 93,24 24,0 47,23 70,46 0,23 23,23 23,47 0,23 -23,46 -23,69 -23,24 -46,24 -70,47 -23,0 -69,23 -116,23 -70,23 -116,47 -139,47 -47,23 -70,46 -93,69 -24,24 -24,70 -24,93 0,47 24,70 24,93 23,47 69,70 93,93 46,0 93,24 139,24 47,0 93,-24 140,-47 46,0 69,-23 93,-70 23,-23 46,-69 46,-116l-93 0c0,47 -23,70 -46,93 -47,23 -70,47 -140,47 -46,0 -93,-24 -116,-24 -23,-23 -47,-46 -47,-93 0,-23 0,-46 24,-46 23,-23 69,-47 139,-70 93,0 140,-23 163,-46 46,0 70,-47 93,-70 23,-23 46,-70 46,-93 0,-47 -23,-70 -46,-116 -23,-24 -47,-47 -93,-70 -47,-23 -93,-46 -140,-46 -69,0 -116,23 -162,46 -47,23 -70,46 -93,70 -24,46 -47,93 -47,139z"
     id="path2503" /></glyph>
   <glyph
   unicode="P"
   horiz-adv-x="657"
   id="glyph2505"><path
     d="M90 0l0 727 273 0c46,0 46,-46 91,-46 46,0 46,0 91,0 0,-45 45,-45 45,-91 0,0 46,-45 46,-90 0,-46 -46,-91 -91,-137 -45,-45 -91,-91 -182,-91l-182 0 0 -272 -91 0zm91 363l182 0c46,0 91,0 137,46 0,0 0,45 0,91 0,45 0,45 0,90 0,0 -46,0 -46,46 -45,0 -45,0 -91,0l-182 0 0 -273z"
     id="path2507" /></glyph>
   <glyph
   unicode="b"
   horiz-adv-x="547"
   id="glyph2509"><path
     d="M136 0l-91 0 0 727 91 0 0 -273c45,46 91,46 136,46 46,0 91,0 91,0 46,0 46,-46 91,-46 0,-45 46,-45 46,-91 0,-45 0,-45 0,-91 0,-91 0,-182 -46,-227 -45,-45 -91,-45 -182,-45 -45,0 -91,0 -136,45l0 -45zm0 272c0,-91 0,-136 45,-136 0,-46 46,-91 91,-91 46,0 91,45 91,45 46,46 46,91 46,182 0,46 0,91 -46,137 0,45 -45,45 -91,45 -45,0 -45,0 -91,-45 -45,-46 -45,-91 -45,-137z"
     id="path2511" /></glyph>
   <glyph
   unicode="h"
   horiz-adv-x="547"
   id="glyph2513"><path
     d="M45 0l0 727 91 0 0 -273c45,46 91,46 182,46 45,0 45,0 91,0 0,0 45,-46 45,-46 0,-45 46,-91 46,-136l0 -318 -91 0 0 318c0,45 -46,91 -46,91 0,45 -45,45 -91,45 0,0 -45,0 -45,-45 -46,0 -46,0 -46,-46 -45,0 -45,-45 -45,-91l0 -272 -91 0z"
     id="path2515" /></glyph>
   <glyph
   unicode="c"
   horiz-adv-x="492"
   id="glyph2517"><path
     d="M409 181l91 0c-46,-45 -46,-91 -91,-136 -46,-45 -91,-45 -137,-45 -91,0 -136,0 -182,45 -45,45 -45,136 -45,227 0,46 0,91 0,137 45,45 45,45 91,91 45,0 91,0 136,0 46,0 91,0 137,0 45,-46 45,-91 45,-137l-45 0c-46,0 -46,46 -46,46 -45,45 -45,45 -91,45 -45,0 -91,0 -91,-45 -45,-46 -45,-91 -45,-137 0,-91 0,-136 45,-182 0,0 46,-45 91,-45 46,0 46,45 91,45 0,0 46,46 46,91z"
     id="path2519" /></glyph>
   <glyph
   unicode="i"
   horiz-adv-x="218"
   id="glyph2521"><path
     d="M45 590l0 137 91 0 0 -137 -91 0zm0 -590l0 500 91 0 0 -500 -91 0z"
     id="path2523" /></glyph>
   <glyph
   unicode="n"
   horiz-adv-x="547"
   id="glyph2525"><path
     d="M45 0l0 500 91 0 0 -46c45,46 91,46 182,46 0,0 45,0 91,0 0,0 45,0 45,-46 0,0 0,-45 0,-45 46,-46 46,-46 46,-91l0 -318 -91 0 0 318c0,45 0,45 -46,91 0,0 0,0 0,0 -45,45 -45,45 -91,45 0,0 -45,0 -91,-45 0,0 -45,-46 -45,-137l0 -272 -91 0z"
     id="path2527" /></glyph>
   <glyph
   unicode="d"
   horiz-adv-x="547"
   id="glyph2529"><path
     d="M409 0l0 45c-46,-45 -91,-45 -137,-45 -45,0 -91,0 -136,0 -46,45 -46,90 -91,136 0,0 0,45 0,136 0,46 0,91 0,137 45,45 45,45 91,91 45,0 91,0 91,0 45,0 91,0 91,0 45,0 45,-46 91,-46l0 273 45 0 0 -727 -45 0zm-273 272c0,-91 0,-136 45,-182 0,0 46,-45 91,-45 46,0 46,45 91,45 0,46 46,91 46,137 0,91 -46,136 -46,182 -45,45 -45,45 -91,45 -45,0 -91,0 -91,-45 -45,-46 -45,-91 -45,-137z"
     id="path2531" /></glyph>
   <glyph
   unicode="e"
   horiz-adv-x="547"
   id="glyph2533"><path
     d="M409 181l91 -45c0,-46 -46,-91 -91,-91 0,-45 -91,-45 -137,-45 -45,0 -136,0 -182,45 -45,45 -45,136 -45,227 0,46 0,137 45,182 46,46 91,46 182,46 91,0 137,0 182,-46 46,-45 46,-136 46,-182 0,0 0,-45 0,-45l-364 0c0,-46 0,-91 45,-137 0,0 46,-45 91,-45 46,0 46,0 91,45 0,0 46,46 46,91zm-273 137l273 0c0,45 0,45 -46,91 0,45 -45,45 -91,45 -45,0 -91,0 -91,-45 -45,-46 -45,-46 -45,-91z"
     id="path2535" /></glyph>
   <glyph
   unicode="l"
   horiz-adv-x="218"
   id="glyph2537"><path
     d="M45 0l0 727 91 0 0 -727 -91 0z"
     id="path2539" /></glyph>
   <glyph
   unicode="k"
   horiz-adv-x="492"
   id="glyph2541"><path
     d="M45 0l0 727 91 0 0 -409 227 182 91 0 -182 -182 228 -318 -137 0 -136 272 -91 -91 0 -181 -91 0z"
     id="path2543" /></glyph>
   <glyph
   unicode="a"
   horiz-adv-x="547"
   id="glyph2545"><path
     d="M409 45c-46,0 -91,-45 -91,-45 -46,0 -91,0 -91,0 -91,0 -137,0 -137,45 -45,0 -45,45 -45,91 0,45 0,45 0,45 0,46 45,46 45,91 46,0 46,0 91,0 0,0 0,0 46,0 91,46 136,46 182,46 0,0 0,45 0,45 0,0 -46,46 -46,46 0,45 -45,45 -91,45 -45,0 -91,0 -91,-45 -45,0 -45,0 -45,-46l-91 0c0,46 45,46 45,91 0,0 46,46 91,46 0,0 46,0 91,0 46,0 91,0 137,0 0,0 45,0 45,-46 0,0 0,0 0,-45 0,0 46,-46 46,-91l0 -91c0,-91 0,-137 0,-182 0,0 0,-45 0,-45l-91 0c0,0 0,45 0,45zm0 227c-46,-45 -91,-45 -182,-45 0,0 -46,0 -46,0 0,-46 -45,-46 -45,-46 0,0 0,-45 0,-45 0,0 0,-46 0,-46 45,-45 45,-45 91,-45 45,0 45,0 91,45 45,0 45,0 45,46 46,0 46,45 46,91l0 45z"
     id="path2547" /></glyph>
   <glyph
   unicode="o"
   horiz-adv-x="547"
   id="glyph2549"><path
     d="M45 272c0,91 0,137 45,182 46,46 137,46 182,46 91,0 137,0 182,-46 46,-45 46,-91 46,-182 0,-91 0,-136 0,-182 -46,0 -46,-45 -91,-90 -46,0 -91,0 -137,0 -91,0 -136,0 -182,45 -45,45 -45,136 -45,227zm91 0c0,-91 0,-136 45,-182 0,0 46,-45 91,-45 46,0 91,45 91,45 46,46 46,91 46,182 0,46 0,91 -46,137 0,45 -45,45 -91,45 -45,0 -91,0 -91,-45 -45,-46 -45,-91 -45,-137z"
     id="path2551" /></glyph>
   <glyph
   unicode="u"
   horiz-adv-x="547"
   id="glyph2553"><path
     d="M409 0l0 90c-46,-90 -91,-90 -182,-90 0,0 -46,0 -91,0 0,0 -46,45 -46,45 0,0 0,45 0,45 -45,46 -45,46 -45,91l0 319 91 0 0 -273c0,-46 0,-91 0,-91 45,-46 45,-46 45,-46 46,0 46,-45 91,-45 0,0 46,45 46,45 45,0 45,46 45,46 0,45 46,45 46,91l0 273 45 0 0 -500 -45 0z"
     id="path2555" /></glyph>
   <glyph
   unicode="y"
   horiz-adv-x="492"
   id="glyph2557"><path
     d="M45 -181l0 45c45,0 45,0 45,0 46,0 46,0 46,46 0,0 45,0 45,0 0,0 0,45 0,90 0,0 46,0 46,0l-227 500 90 0 137 -273c0,-46 0,-91 45,-137 0,46 0,91 0,137l137 273 91 0 -228 -500c0,-45 0,-90 -45,-136 0,0 0,-45 -46,-45 0,0 -45,-46 -45,-46 -46,0 -46,46 -91,46z"
     id="path2559" /></glyph>
   <glyph
   unicode="z"
   horiz-adv-x="492"
   id="glyph2561"><path
     d="M0 0l0 90 363 364c-45,0 -91,0 -136,0l-182 0 0 46 409 0 0 -46 -273 -318 -45 -46c45,0 45,0 91,0l227 0 0 -90 -454 0z"
     id="path2563" /></glyph>
   <glyph
   unicode="t"
   horiz-adv-x="273"
   id="glyph2565"><path
     d="M272 90l0 -90c-45,0 -45,0 -91,0 0,0 -45,0 -45,0 -46,0 -46,45 -46,45 0,0 0,45 0,91l0 318 -90 0 0 46 90 0 0 136 91 45 0 -181 91 0 0 -46 -91 0 0 -318c0,0 0,-46 0,-46 0,0 0,0 0,0 0,0 0,0 46,0 0,0 0,0 45,0z"
     id="path2567" /></glyph>
   <glyph
   unicode="s"
   horiz-adv-x="492"
   id="glyph2569"><path
     d="M45 136l91 45c0,-45 0,-91 0,-91 45,0 91,-45 91,-45 45,0 91,0 91,45 45,0 45,46 45,46 0,45 0,45 -45,45 0,0 0,46 -46,46 -91,0 -136,0 -136,45 -46,0 -46,0 -91,46 0,0 0,45 0,45 0,46 0,46 0,91 45,0 45,0 45,46 46,0 46,0 46,0 45,0 91,0 91,0 45,0 91,0 91,0 45,0 91,0 91,-46 0,0 0,-45 45,-91l-91 0c0,46 -45,46 -45,46 0,45 -46,45 -91,45 -46,0 -46,0 -91,-45 0,0 0,0 0,-46 0,0 0,0 0,0 0,0 0,-45 45,-45 0,0 46,0 46,0 91,-46 136,-46 136,-46 46,0 46,-45 91,-45 0,-46 0,-46 0,-91 0,0 0,-46 -45,-46 0,-45 0,-45 -46,-90 -45,0 -91,0 -136,0 -46,0 -91,0 -137,45 -45,0 -45,45 -45,91z"
     id="path2571" /></glyph>
   <glyph
   unicode="v"
   horiz-adv-x="492"
   id="glyph2573"><path
     d="M227 0l-227 500 90 0 137 -273c0,-46 0,-91 0,-137 45,46 45,91 45,91l137 319 91 0 -228 -500 -45 0z"
     id="path2575" /></glyph>
   <glyph
   unicode="r"
   horiz-adv-x="328"
   id="glyph2577"><path
     d="M45 0l0 500 91 0 0 -46c45,0 45,46 45,46 46,0 46,0 91,0 0,0 46,0 91,0l-45 -91c-46,0 -46,45 -91,45 0,0 0,-45 -46,-45 0,0 0,0 0,-46 -45,-45 -45,-45 -45,-91l0 -272 -91 0z"
     id="path2579" /></glyph>
   <glyph
   unicode="ť"
   horiz-adv-x="369"
   id="glyph2581"><path
     d="M272 636l0 91 91 0 0 -91c0,-46 0,-91 0,-91 -45,-45 -45,-45 -45,-45l-46 45c0,0 46,0 46,0 0,45 0,45 0,91l-46 0zm0 -546l0 -90c-45,0 -45,0 -91,0 0,0 -45,0 -45,0 -46,0 -46,45 -46,45 0,0 0,45 0,91l0 318 -90 0 0 46 90 0 0 136 91 45 0 -181 91 0 0 -46 -91 0 0 -318c0,0 0,-46 0,-46 0,0 0,0 0,0 0,0 0,0 46,0 0,0 0,0 45,0z"
     id="path2583" /></glyph>
   <glyph
   unicode="š"
   horiz-adv-x="492"
   id="glyph2585"><path
     d="M45 136l91 45c0,-45 0,-91 0,-91 45,0 91,-45 91,-45 45,0 91,0 91,45 45,0 45,46 45,46 0,45 0,45 -45,45 0,0 0,46 -46,46 -91,0 -136,0 -136,45 -46,0 -46,0 -91,46 0,0 0,45 0,45 0,46 0,46 0,91 45,0 45,0 45,46 46,0 46,0 46,0 45,0 91,0 91,0 45,0 91,0 91,0 45,0 91,0 91,-46 0,0 0,-45 45,-91l-91 0c0,46 -45,46 -45,46 0,45 -46,45 -91,45 -46,0 -46,0 -91,-45 0,0 0,0 0,-46 0,0 0,0 0,0 0,0 0,-45 45,-45 0,0 46,0 46,0 91,-46 136,-46 136,-46 46,0 46,-45 91,-45 0,-46 0,-46 0,-91 0,0 0,-46 -45,-46 0,-45 0,-45 -46,-90 -45,0 -91,0 -136,0 -46,0 -91,0 -137,45 -45,0 -45,45 -45,91zm182 500l91 91 91 0 -137 -137 -91 0 -91 137 91 0 46 -91z"
     id="path2587" /></glyph>
   <glyph
   unicode="é"
   horiz-adv-x="547"
   id="glyph2589"><path
     d="M409 181l91 -45c0,-46 -46,-91 -91,-91 0,-45 -91,-45 -137,-45 -45,0 -136,0 -182,45 -45,45 -45,136 -45,227 0,46 0,137 45,182 46,46 91,46 182,46 91,0 137,0 182,-46 46,-45 46,-136 46,-182 0,0 0,-45 0,-45l-364 0c0,-46 0,-91 45,-137 0,0 46,-45 91,-45 46,0 46,0 91,45 0,0 46,46 46,91zm-273 137l273 0c0,45 0,45 -46,91 0,45 -45,45 -91,45 -45,0 -91,0 -91,-45 -45,-46 -45,-46 -45,-91zm91 272l45 137 137 0 -137 -137 -45 0z"
     id="path2591" /></glyph>
   <glyph
   unicode="ě"
   horiz-adv-x="547"
   id="glyph2593"><path
     d="M409 181l91 -45c0,-46 -46,-91 -91,-91 0,-45 -91,-45 -137,-45 -45,0 -136,0 -182,45 -45,45 -45,136 -45,227 0,46 0,137 45,182 46,46 91,46 182,46 91,0 137,0 182,-46 46,-45 46,-136 46,-182 0,0 0,-45 0,-45l-364 0c0,-46 0,-91 45,-137 0,0 46,-45 91,-45 46,0 46,0 91,45 0,0 46,46 46,91zm-273 137l273 0c0,45 0,45 -46,91 0,45 -45,45 -91,45 -45,0 -91,0 -91,-45 -45,-46 -45,-46 -45,-91zm136 318l46 91 91 0 -91 -137 -91 0 -91 137 91 0 45 -91z"
     id="path2595" /></glyph>
   <glyph
   unicode="í"
   horiz-adv-x="273"
   id="glyph2597"><path
     d="M90 0l0 500 91 0 0 -500 -91 0zm0 590l46 137 136 0 -91 -137 -91 0z"
     id="path2599" /></glyph>
   <glyph
   unicode="á"
   horiz-adv-x="547"
   id="glyph2601"><path
     d="M409 45c-46,0 -91,-45 -91,-45 -46,0 -91,0 -91,0 -91,0 -137,0 -137,45 -45,0 -45,45 -45,91 0,45 0,45 0,45 0,46 45,46 45,91 46,0 46,0 91,0 0,0 0,0 46,0 91,46 136,46 182,46 0,0 0,45 0,45 0,0 -46,46 -46,46 0,45 -45,45 -91,45 -45,0 -91,0 -91,-45 -45,0 -45,0 -45,-46l-91 0c0,46 45,46 45,91 0,0 46,46 91,46 0,0 46,0 91,0 46,0 91,0 137,0 0,0 45,0 45,-46 0,0 0,0 0,-45 0,0 46,-46 46,-91l0 -91c0,-91 0,-137 0,-182 0,0 0,-45 0,-45l-91 0c0,0 0,45 0,45zm0 227c-46,-45 -91,-45 -182,-45 0,0 -46,0 -46,0 0,-46 -45,-46 -45,-46 0,0 0,-45 0,-45 0,0 0,-46 0,-46 45,-45 45,-45 91,-45 45,0 45,0 91,45 45,0 45,0 45,46 46,0 46,45 46,91l0 45zm-182 318l45 137 137 0 -137 -137 -45 0z"
     id="path2603" /></glyph>
   <glyph
   unicode="ř"
   horiz-adv-x="328"
   id="glyph2605"><path
     d="M45 0l0 500 91 0 0 -46c45,0 45,46 45,46 46,0 46,0 91,0 0,0 46,0 91,0l-45 -91c-46,0 -46,45 -91,45 0,0 0,-45 -46,-45 0,0 0,0 0,-46 -45,-45 -45,-45 -45,-91l0 -272 -91 0zm136 636l46 91 91 0 -91 -137 -91 0 -91 137 91 0 45 -91z"
     id="path2607" /></glyph>
  </font>
</defs>
</svg>
