<svg xmlns="http://www.w3.org/2000/svg">
<defs>
<font
       horiz-adv-x="2048"
       id="EmbeddedFont_1">
      <font-face
         id="font-face3733"
         descent="529"
         ascent="1879"
         units-per-em="2048"
         font-family="Bodoni MT Condensed embedded" />
      <missing-glyph
         id="missing-glyph3735"
         horiz-adv-x="2048">
        <path
           id="path3737"
           d="M 0,2048 L 2047,2048 2047,1 0,1 0,2048 Z"
           style="fill:none;stroke:black;stroke-width:33" />
      </missing-glyph>
      <glyph
         id="glyph3739"
         horiz-adv-x="661"
         unicode=" " />
      <glyph
         id="glyph3741"
         horiz-adv-x="583"
         unicode="D">
        <path
           id="path3743"
           d="M 43,1303 C 43,1303 43,1303 387,1303 498,1303 575,1248 618,1138 661,1028 682,860 682,635 682,466 671,338 650,251 628,164 594,100 549,60 503,20 442,0 367,0 367,0 367,0 43,0 43,0 43,0 43,31 43,31 43,31 131,31 131,31 131,31 131,1272 131,1272 131,1272 43,1272 43,1272 43,1272 43,1303 Z M 498,221 C 498,221 498,221 498,1145 498,1184 487,1215 466,1238 445,1261 416,1272 381,1272 381,1272 381,1272 301,1272 301,1272 301,1272 301,31 301,31 301,31 360,31 406,31 441,47 464,79 487,110 498,158 498,221 Z" />
      </glyph>
      <glyph
         id="glyph3745"
         horiz-adv-x="609"
         unicode="T">
        <path
           id="path3747"
           d="M 711,958 C 711,958 711,958 680,958 670,1069 648,1149 614,1198 580,1247 529,1272 461,1272 461,1272 461,1272 461,31 461,31 461,31 549,31 549,31 549,31 549,0 549,0 549,0 203,0 203,0 203,0 203,31 203,31 203,31 291,31 291,31 291,31 291,1272 222,1272 171,1247 137,1198 103,1149 81,1069 72,958 72,958 72,958 41,958 41,958 41,958 41,1303 41,1303 41,1303 711,1303 711,1303 711,1303 711,958 Z" />
      </glyph>
      <glyph
         id="glyph3749"
         horiz-adv-x="557"
         unicode="a">
        <path
           id="path3751"
           d="M 608,129 C 608,84 597,50 576,25 554,0 523,-12 483,-12 422,-12 384,19 367,80 337,19 284,-12 209,-12 161,-12 121,7 90,44 59,81 43,131 43,193 43,240 55,282 80,319 105,356 151,396 219,440 301,493 346,528 354,545 354,545 354,545 354,772 354,802 345,826 328,843 310,860 286,868 256,868 236,868 217,863 198,854 179,845 170,836 170,827 170,814 177,804 190,797 219,782 233,758 233,727 233,704 226,684 211,669 196,653 177,645 154,645 128,645 107,654 91,672 74,689 66,711 66,737 66,778 87,816 130,849 172,882 223,899 283,899 345,899 398,874 443,825 488,775 510,712 510,635 510,635 510,635 510,88 510,58 520,43 539,43 565,43 578,79 578,150 578,150 578,150 608,150 608,150 608,150 608,129 Z M 354,164 C 354,164 354,164 354,502 343,489 326,474 301,457 262,429 237,403 225,378 213,353 207,321 207,283 207,283 207,283 207,137 207,74 229,43 274,43 293,43 311,54 328,77 345,100 354,129 354,164 Z" />
      </glyph>
      <glyph
         id="glyph3753"
         horiz-adv-x="583"
         unicode="d">
        <path
           id="path3755"
           d="M 694,0 C 694,0 694,0 453,0 453,0 453,0 453,59 419,10 376,-14 324,-14 250,-14 188,29 138,114 88,199 63,309 63,442 63,575 88,685 138,771 188,856 250,899 324,899 376,899 419,874 453,825 453,825 453,825 453,1272 453,1272 453,1272 367,1272 367,1272 367,1272 367,1303 367,1303 367,1303 608,1303 608,1303 608,1303 608,31 608,31 608,31 694,31 694,31 694,31 694,0 Z M 453,158 C 453,158 453,158 453,727 453,763 441,794 417,821 393,847 369,860 344,860 308,860 280,842 260,807 239,772 229,722 229,657 229,657 229,657 229,227 229,163 239,113 260,78 280,43 308,25 344,25 369,25 393,38 417,65 441,92 453,123 453,158 Z" />
      </glyph>
      <glyph
         id="glyph3757"
         horiz-adv-x="504"
         unicode="e">
        <path
           id="path3759"
           d="M 565,420 C 565,420 565,420 229,420 229,420 229,420 229,217 229,156 242,108 267,73 292,38 324,20 362,20 406,20 443,44 473,92 503,140 522,208 530,295 530,295 530,295 563,295 554,190 532,112 496,62 460,11 407,-14 338,-14 250,-14 182,26 135,106 87,186 63,299 63,446 63,593 86,705 131,783 176,860 241,899 328,899 407,899 466,859 506,779 545,699 565,579 565,420 Z M 406,455 C 406,455 406,455 406,721 406,767 399,803 385,829 371,855 352,868 328,868 297,868 273,852 256,820 238,788 229,745 229,692 229,692 229,692 229,455 229,455 229,455 406,455 Z" />
      </glyph>
      <glyph
         id="glyph3761"
         horiz-adv-x="636"
         unicode="h">
        <path
           id="path3763"
           d="M 713,0 C 713,0 713,0 416,0 416,0 416,0 416,31 416,31 416,31 471,31 471,31 471,31 471,731 471,765 466,792 455,812 444,832 430,842 412,842 384,842 355,820 325,775 294,730 279,686 279,641 279,641 279,641 279,31 279,31 279,31 334,31 334,31 334,31 334,0 334,0 334,0 37,0 37,0 37,0 37,31 37,31 37,31 123,31 123,31 123,31 123,1272 123,1272 123,1272 37,1272 37,1272 37,1272 37,1303 37,1303 37,1303 279,1303 279,1303 279,1303 279,762 324,853 386,899 463,899 516,899 556,881 585,845 613,808 627,757 627,690 627,690 627,690 627,31 627,31 627,31 713,31 713,31 713,31 713,0 Z" />
      </glyph>
      <glyph
         id="glyph3765"
         horiz-adv-x="292"
         unicode="i">
        <path
           id="path3767"
           d="M 201,1303 C 225,1303 246,1294 263,1277 280,1260 289,1239 289,1214 289,1190 280,1169 263,1152 246,1135 225,1126 201,1126 176,1126 156,1135 139,1152 122,1169 113,1190 113,1214 113,1239 122,1260 139,1277 156,1294 176,1303 201,1303 Z M 365,0 L 37,0 37,31 123,31 123,852 37,852 37,883 279,883 279,31 365,31 365,0 Z" />
      </glyph>
      <glyph
         id="glyph3769"
         horiz-adv-x="980"
         unicode="m">
        <path
           id="path3771"
           d="M 1061,0 C 1061,0 1061,0 764,0 764,0 764,0 764,31 764,31 764,31 819,31 819,31 819,31 819,733 819,767 814,794 803,814 792,834 778,844 760,844 733,844 704,822 673,777 642,732 627,688 627,643 627,643 627,643 627,31 627,31 627,31 682,31 682,31 682,31 682,0 682,0 682,0 416,0 416,0 416,0 416,31 416,31 416,31 471,31 471,31 471,31 471,733 471,767 466,794 455,814 444,834 430,844 412,844 384,844 355,822 325,777 294,732 279,688 279,643 279,643 279,643 279,31 279,31 279,31 334,31 334,31 334,31 334,0 334,0 334,0 37,0 37,0 37,0 37,31 37,31 37,31 123,31 123,31 123,31 123,848 123,848 123,848 37,848 37,848 37,848 37,883 37,883 37,883 279,883 279,883 279,883 279,764 324,855 386,901 463,901 552,901 604,853 621,756 669,853 732,901 811,901 864,901 904,883 933,847 961,810 975,759 975,692 975,692 975,692 975,31 975,31 975,31 1061,31 1061,31 1061,31 1061,0 Z" />
      </glyph>
      <glyph
         id="glyph3773"
         horiz-adv-x="557"
         unicode="o">
        <path
           id="path3775"
           d="M 344,899 C 431,899 499,859 547,780 594,701 618,592 618,455 618,304 595,188 548,107 501,26 432,-14 342,-14 252,-14 183,27 135,108 87,189 63,305 63,455 63,596 87,705 136,783 184,860 253,899 344,899 Z M 453,199 C 453,199 453,199 453,657 453,727 444,780 425,815 406,850 379,868 342,868 308,868 281,850 260,814 239,778 229,731 229,672 229,672 229,672 229,207 229,152 239,107 260,71 280,34 307,16 340,16 374,16 401,33 422,68 443,102 453,146 453,199 Z" />
      </glyph>
      <glyph
         id="glyph3777"
         horiz-adv-x="451"
         unicode="r">
        <path
           id="path3779"
           d="M 283,817 C 308,872 351,899 412,899 445,899 473,888 496,866 519,844 530,817 530,786 530,761 522,740 506,723 490,705 469,696 444,696 421,696 403,704 388,719 373,734 365,751 365,772 365,789 373,809 389,834 394,841 397,846 397,848 397,857 392,862 381,862 356,862 332,844 311,809 290,774 279,733 279,686 279,686 279,686 279,31 279,31 279,31 365,31 365,31 365,31 365,0 365,0 365,0 37,0 37,0 37,0 37,31 37,31 37,31 123,31 123,31 123,31 123,852 123,852 123,852 37,852 37,852 37,852 37,883 37,883 37,883 279,883 279,883 279,883 279,817 279,817 279,817 283,817 Z" />
      </glyph>
      <glyph
         id="glyph3781"
         horiz-adv-x="424"
         unicode="s">
        <path
           id="path3783"
           d="M 442,627 C 431,706 409,766 376,807 343,848 303,868 256,868 227,868 203,858 186,838 169,817 160,791 160,760 160,726 169,695 188,668 207,640 250,597 317,539 447,427 512,318 512,213 512,133 492,75 453,40 413,4 364,-14 305,-14 251,-14 205,-3 168,18 151,29 136,35 125,35 114,35 106,23 102,0 102,0 102,0 72,0 72,0 72,0 72,301 72,301 72,301 102,301 113,208 137,137 173,89 208,40 251,16 301,16 332,16 358,27 379,49 400,71 410,98 410,131 410,172 397,211 370,250 343,288 296,336 227,395 120,488 66,582 66,676 66,750 86,806 126,843 165,880 209,899 256,899 309,899 353,887 389,864 401,857 411,854 420,854 435,854 442,864 442,883 442,883 442,883 473,883 473,883 473,883 473,627 473,627 473,627 442,627 Z" />
      </glyph>
      <glyph
         id="glyph3785"
         horiz-adv-x="345"
         unicode="t">
        <path
           id="path3787"
           d="M 422,180 C 404,49 349,-16 256,-16 219,-16 189,-3 166,23 143,48 131,83 131,127 131,127 131,127 131,852 131,852 131,852 27,852 27,852 27,852 27,883 27,883 27,883 131,883 131,883 131,883 131,1128 131,1128 131,1128 287,1128 287,1128 287,1128 287,883 287,883 287,883 391,883 391,883 391,883 391,852 391,852 391,852 287,852 287,852 287,852 287,82 287,57 295,45 311,45 348,45 374,90 389,180 389,180 389,180 422,180 Z" />
      </glyph>
      <glyph
         id="glyph3789"
         horiz-adv-x="609"
         unicode="u">
        <path
           id="path3791"
           d="M 707,0 C 707,0 707,0 465,0 465,0 465,0 465,90 425,21 364,-14 283,-14 230,-14 189,4 160,41 131,77 117,128 117,195 117,195 117,195 117,852 117,852 117,852 31,852 31,852 31,852 31,883 31,883 31,883 272,883 272,883 272,883 272,154 272,80 297,43 346,43 375,43 402,59 427,91 452,122 465,160 465,203 465,203 465,203 465,852 465,852 465,852 410,852 410,852 410,852 410,883 410,883 410,883 621,883 621,883 621,883 621,31 621,31 621,31 707,31 707,31 707,31 707,0 Z" />
      </glyph>
      <glyph
         id="glyph3793"
         horiz-adv-x="504"
         unicode="é">
        <path
           id="path3795"
           d="M 565,420 C 565,420 565,420 229,420 229,420 229,420 229,217 229,156 242,108 267,73 292,38 324,20 362,20 406,20 443,44 473,92 503,140 522,208 530,295 530,295 530,295 563,295 554,190 532,112 496,62 460,11 407,-14 338,-14 250,-14 182,26 135,106 87,186 63,299 63,446 63,593 86,705 131,783 176,860 241,899 328,899 407,899 466,859 506,779 545,699 565,579 565,420 Z M 406,455 C 406,455 406,455 406,721 406,767 399,803 385,829 371,855 352,868 328,868 297,868 273,852 256,820 238,788 229,745 229,692 229,692 229,692 229,455 229,455 229,455 406,455 Z M 502,1317 L 289,971 257,971 306,1317 502,1317 Z" />
      </glyph>
    </font>
    <font
       horiz-adv-x="2048"
       id="font4942">
      <font-face
         id="font-face3667"
         descent="529"
         ascent="1879"
         units-per-em="2048"
         font-family="Bodoni MT Condensed embedded" />
      <missing-glyph
         id="missing-glyph3669"
         horiz-adv-x="2048">
        <path
           id="path3671"
           d="M 0,2048 L 2047,2048 2047,1 0,1 0,2048 Z"
           style="fill:none;stroke:black;stroke-width:33" />
      </missing-glyph>
      <glyph
         id="glyph3673"
         horiz-adv-x="661"
         unicode=" " />
      <glyph
         id="glyph3675"
         horiz-adv-x="583"
         unicode="D">
        <path
           id="path3677"
           d="M 43,1303 C 43,1303 43,1303 387,1303 498,1303 575,1248 618,1138 661,1028 682,860 682,635 682,466 671,338 650,251 628,164 594,100 549,60 503,20 442,0 367,0 367,0 367,0 43,0 43,0 43,0 43,31 43,31 43,31 131,31 131,31 131,31 131,1272 131,1272 131,1272 43,1272 43,1272 43,1272 43,1303 Z M 498,221 C 498,221 498,221 498,1145 498,1184 487,1215 466,1238 445,1261 416,1272 381,1272 381,1272 381,1272 301,1272 301,1272 301,1272 301,31 301,31 301,31 360,31 406,31 441,47 464,79 487,110 498,158 498,221 Z" />
      </glyph>
      <glyph
         id="glyph3679"
         horiz-adv-x="609"
         unicode="T">
        <path
           id="path3681"
           d="M 711,958 C 711,958 711,958 680,958 670,1069 648,1149 614,1198 580,1247 529,1272 461,1272 461,1272 461,1272 461,31 461,31 461,31 549,31 549,31 549,31 549,0 549,0 549,0 203,0 203,0 203,0 203,31 203,31 203,31 291,31 291,31 291,31 291,1272 222,1272 171,1247 137,1198 103,1149 81,1069 72,958 72,958 72,958 41,958 41,958 41,958 41,1303 41,1303 41,1303 711,1303 711,1303 711,1303 711,958 Z" />
      </glyph>
      <glyph
         id="glyph3683"
         horiz-adv-x="557"
         unicode="a">
        <path
           id="path3685"
           d="M 608,129 C 608,84 597,50 576,25 554,0 523,-12 483,-12 422,-12 384,19 367,80 337,19 284,-12 209,-12 161,-12 121,7 90,44 59,81 43,131 43,193 43,240 55,282 80,319 105,356 151,396 219,440 301,493 346,528 354,545 354,545 354,545 354,772 354,802 345,826 328,843 310,860 286,868 256,868 236,868 217,863 198,854 179,845 170,836 170,827 170,814 177,804 190,797 219,782 233,758 233,727 233,704 226,684 211,669 196,653 177,645 154,645 128,645 107,654 91,672 74,689 66,711 66,737 66,778 87,816 130,849 172,882 223,899 283,899 345,899 398,874 443,825 488,775 510,712 510,635 510,635 510,635 510,88 510,58 520,43 539,43 565,43 578,79 578,150 578,150 578,150 608,150 608,150 608,150 608,129 Z M 354,164 C 354,164 354,164 354,502 343,489 326,474 301,457 262,429 237,403 225,378 213,353 207,321 207,283 207,283 207,283 207,137 207,74 229,43 274,43 293,43 311,54 328,77 345,100 354,129 354,164 Z" />
      </glyph>
      <glyph
         id="glyph3687"
         horiz-adv-x="583"
         unicode="d">
        <path
           id="path3689"
           d="M 694,0 C 694,0 694,0 453,0 453,0 453,0 453,59 419,10 376,-14 324,-14 250,-14 188,29 138,114 88,199 63,309 63,442 63,575 88,685 138,771 188,856 250,899 324,899 376,899 419,874 453,825 453,825 453,825 453,1272 453,1272 453,1272 367,1272 367,1272 367,1272 367,1303 367,1303 367,1303 608,1303 608,1303 608,1303 608,31 608,31 608,31 694,31 694,31 694,31 694,0 Z M 453,158 C 453,158 453,158 453,727 453,763 441,794 417,821 393,847 369,860 344,860 308,860 280,842 260,807 239,772 229,722 229,657 229,657 229,657 229,227 229,163 239,113 260,78 280,43 308,25 344,25 369,25 393,38 417,65 441,92 453,123 453,158 Z" />
      </glyph>
      <glyph
         id="glyph3691"
         horiz-adv-x="504"
         unicode="e">
        <path
           id="path3693"
           d="M 565,420 C 565,420 565,420 229,420 229,420 229,420 229,217 229,156 242,108 267,73 292,38 324,20 362,20 406,20 443,44 473,92 503,140 522,208 530,295 530,295 530,295 563,295 554,190 532,112 496,62 460,11 407,-14 338,-14 250,-14 182,26 135,106 87,186 63,299 63,446 63,593 86,705 131,783 176,860 241,899 328,899 407,899 466,859 506,779 545,699 565,579 565,420 Z M 406,455 C 406,455 406,455 406,721 406,767 399,803 385,829 371,855 352,868 328,868 297,868 273,852 256,820 238,788 229,745 229,692 229,692 229,692 229,455 229,455 229,455 406,455 Z" />
      </glyph>
      <glyph
         id="glyph3695"
         horiz-adv-x="636"
         unicode="h">
        <path
           id="path3697"
           d="M 713,0 C 713,0 713,0 416,0 416,0 416,0 416,31 416,31 416,31 471,31 471,31 471,31 471,731 471,765 466,792 455,812 444,832 430,842 412,842 384,842 355,820 325,775 294,730 279,686 279,641 279,641 279,641 279,31 279,31 279,31 334,31 334,31 334,31 334,0 334,0 334,0 37,0 37,0 37,0 37,31 37,31 37,31 123,31 123,31 123,31 123,1272 123,1272 123,1272 37,1272 37,1272 37,1272 37,1303 37,1303 37,1303 279,1303 279,1303 279,1303 279,762 324,853 386,899 463,899 516,899 556,881 585,845 613,808 627,757 627,690 627,690 627,690 627,31 627,31 627,31 713,31 713,31 713,31 713,0 Z" />
      </glyph>
      <glyph
         id="glyph3699"
         horiz-adv-x="292"
         unicode="i">
        <path
           id="path3701"
           d="M 201,1303 C 225,1303 246,1294 263,1277 280,1260 289,1239 289,1214 289,1190 280,1169 263,1152 246,1135 225,1126 201,1126 176,1126 156,1135 139,1152 122,1169 113,1190 113,1214 113,1239 122,1260 139,1277 156,1294 176,1303 201,1303 Z M 365,0 L 37,0 37,31 123,31 123,852 37,852 37,883 279,883 279,31 365,31 365,0 Z" />
      </glyph>
      <glyph
         id="glyph3703"
         horiz-adv-x="980"
         unicode="m">
        <path
           id="path3705"
           d="M 1061,0 C 1061,0 1061,0 764,0 764,0 764,0 764,31 764,31 764,31 819,31 819,31 819,31 819,733 819,767 814,794 803,814 792,834 778,844 760,844 733,844 704,822 673,777 642,732 627,688 627,643 627,643 627,643 627,31 627,31 627,31 682,31 682,31 682,31 682,0 682,0 682,0 416,0 416,0 416,0 416,31 416,31 416,31 471,31 471,31 471,31 471,733 471,767 466,794 455,814 444,834 430,844 412,844 384,844 355,822 325,777 294,732 279,688 279,643 279,643 279,643 279,31 279,31 279,31 334,31 334,31 334,31 334,0 334,0 334,0 37,0 37,0 37,0 37,31 37,31 37,31 123,31 123,31 123,31 123,848 123,848 123,848 37,848 37,848 37,848 37,883 37,883 37,883 279,883 279,883 279,883 279,764 324,855 386,901 463,901 552,901 604,853 621,756 669,853 732,901 811,901 864,901 904,883 933,847 961,810 975,759 975,692 975,692 975,692 975,31 975,31 975,31 1061,31 1061,31 1061,31 1061,0 Z" />
      </glyph>
      <glyph
         id="glyph3707"
         horiz-adv-x="557"
         unicode="o">
        <path
           id="path3709"
           d="M 344,899 C 431,899 499,859 547,780 594,701 618,592 618,455 618,304 595,188 548,107 501,26 432,-14 342,-14 252,-14 183,27 135,108 87,189 63,305 63,455 63,596 87,705 136,783 184,860 253,899 344,899 Z M 453,199 C 453,199 453,199 453,657 453,727 444,780 425,815 406,850 379,868 342,868 308,868 281,850 260,814 239,778 229,731 229,672 229,672 229,672 229,207 229,152 239,107 260,71 280,34 307,16 340,16 374,16 401,33 422,68 443,102 453,146 453,199 Z" />
      </glyph>
      <glyph
         id="glyph3711"
         horiz-adv-x="451"
         unicode="r">
        <path
           id="path3713"
           d="M 283,817 C 308,872 351,899 412,899 445,899 473,888 496,866 519,844 530,817 530,786 530,761 522,740 506,723 490,705 469,696 444,696 421,696 403,704 388,719 373,734 365,751 365,772 365,789 373,809 389,834 394,841 397,846 397,848 397,857 392,862 381,862 356,862 332,844 311,809 290,774 279,733 279,686 279,686 279,686 279,31 279,31 279,31 365,31 365,31 365,31 365,0 365,0 365,0 37,0 37,0 37,0 37,31 37,31 37,31 123,31 123,31 123,31 123,852 123,852 123,852 37,852 37,852 37,852 37,883 37,883 37,883 279,883 279,883 279,883 279,817 279,817 279,817 283,817 Z" />
      </glyph>
      <glyph
         id="glyph3715"
         horiz-adv-x="424"
         unicode="s">
        <path
           id="path3717"
           d="M 442,627 C 431,706 409,766 376,807 343,848 303,868 256,868 227,868 203,858 186,838 169,817 160,791 160,760 160,726 169,695 188,668 207,640 250,597 317,539 447,427 512,318 512,213 512,133 492,75 453,40 413,4 364,-14 305,-14 251,-14 205,-3 168,18 151,29 136,35 125,35 114,35 106,23 102,0 102,0 102,0 72,0 72,0 72,0 72,301 72,301 72,301 102,301 113,208 137,137 173,89 208,40 251,16 301,16 332,16 358,27 379,49 400,71 410,98 410,131 410,172 397,211 370,250 343,288 296,336 227,395 120,488 66,582 66,676 66,750 86,806 126,843 165,880 209,899 256,899 309,899 353,887 389,864 401,857 411,854 420,854 435,854 442,864 442,883 442,883 442,883 473,883 473,883 473,883 473,627 473,627 473,627 442,627 Z" />
      </glyph>
      <glyph
         id="glyph3719"
         horiz-adv-x="345"
         unicode="t">
        <path
           id="path3721"
           d="M 422,180 C 404,49 349,-16 256,-16 219,-16 189,-3 166,23 143,48 131,83 131,127 131,127 131,127 131,852 131,852 131,852 27,852 27,852 27,852 27,883 27,883 27,883 131,883 131,883 131,883 131,1128 131,1128 131,1128 287,1128 287,1128 287,1128 287,883 287,883 287,883 391,883 391,883 391,883 391,852 391,852 391,852 287,852 287,852 287,852 287,82 287,57 295,45 311,45 348,45 374,90 389,180 389,180 389,180 422,180 Z" />
      </glyph>
      <glyph
         id="glyph3723"
         horiz-adv-x="609"
         unicode="u">
        <path
           id="path3725"
           d="M 707,0 C 707,0 707,0 465,0 465,0 465,0 465,90 425,21 364,-14 283,-14 230,-14 189,4 160,41 131,77 117,128 117,195 117,195 117,195 117,852 117,852 117,852 31,852 31,852 31,852 31,883 31,883 31,883 272,883 272,883 272,883 272,154 272,80 297,43 346,43 375,43 402,59 427,91 452,122 465,160 465,203 465,203 465,203 465,852 465,852 465,852 410,852 410,852 410,852 410,883 410,883 410,883 621,883 621,883 621,883 621,31 621,31 621,31 707,31 707,31 707,31 707,0 Z" />
      </glyph>
      <glyph
         id="glyph3727"
         horiz-adv-x="504"
         unicode="é">
        <path
           id="path3729"
           d="M 565,420 C 565,420 565,420 229,420 229,420 229,420 229,217 229,156 242,108 267,73 292,38 324,20 362,20 406,20 443,44 473,92 503,140 522,208 530,295 530,295 530,295 563,295 554,190 532,112 496,62 460,11 407,-14 338,-14 250,-14 182,26 135,106 87,186 63,299 63,446 63,593 86,705 131,783 176,860 241,899 328,899 407,899 466,859 506,779 545,699 565,579 565,420 Z M 406,455 C 406,455 406,455 406,721 406,767 399,803 385,829 371,855 352,868 328,868 297,868 273,852 256,820 238,788 229,745 229,692 229,692 229,692 229,455 229,455 229,455 406,455 Z M 502,1317 L 289,971 257,971 306,1317 502,1317 Z" />
      </glyph>
    </font>
</defs>
</svg>
